Today is a free download without charge Download

Snow Patrol - Live At Gurtenfestival [2012, Indie - Rock, HDTVRip 720p]

Reply to topic
 
Author
Message

Omen ®

Longevity: 8 years 4 months

Posts: 181087

Торрент-статистика

Post 25-Mar-2013 17:20

[Quote]

Snow Patrol - Live At Gurtenfestival
Жанр: Indie - Rock
Продолжительность: 00:32:34
Год выпуска: 2012
Описание: То, что вошло в телетрансляцию выступления Snow Patrol на Gurtenfestival 15 июля 2012 года
Tracklist:
01. Shut Your Eyes
02. Chasing Cars
03. Chocolate
04. Called Out in the Dark
05. Fallen Empires
06. Open Your Eyes
Качество: HDTVRip 720p
Контейнер: MKV
Видео кодек: H.264
Аудио кодек: AC3
Видео: AVC, 1272x720, 16:9, 7235 Kbps, 50 fps
Аудио: AC3, 448 Kbps. 48 kHz. 6 ch

MediaInfo

GeneralUnique ID : 89756899477496572496681971633535883071 (0x43868CCF8BE024FD208FBD631B0C973F)Complete name : K:\Snow_patrol-gurtenfestival_(2012)-720p-x264-2013-uva\Snow_patrol-gurtenfestival_(2012)-720p-x264-2013-uva.mkvFormat : MatroskaFormat version : Version 4 / Version 2File size : 1.78 GiBDuration : 32mn 34sOverall bit rate : 7 839 KbpsEncoded date : UTC 2013-03-17 11:30:30Writing application : mkvmerge v6.1.0 ('Old Devil') built on Mar 2 2013 15:15:26Writing library : libebml v1.3.0 + libmatroska v1.4.0
VideoID : 1Format : AVCFormat/Info : Advanced Video CodecFormat profile : [email protected] settings, CABAC : YesFormat settings, ReFrames : 5 framesCodec ID : V_MPEG4/ISO/AVCDuration : 32mn 34sBit rate : 7 235 KbpsWidth : 1 272 pixelsHeight : 720 pixelsDisplay aspect ratio : 16:9Original display aspect ratio : 16:9Frame rate : 50.000 fpsColor space : YUVChroma subsampling : 4:2:0Bit depth : 8 bitsScan type : ProgressiveBits/(Pixel*Frame) : 0.158Stream size : 1.65 GiB (92%)Writing library : x264 core 130 r2273 b3065e6Encoding settings : cabac=1 / ref=5 / deblock=1:0:0 / analyse=0x3:0x113 / me=umh / subme=9 / psy=1 / psy_rd=1.00:0.00 / mixed_ref=1 / me_range=24 / chroma_me=1 / trellis=1 / 8x8dct=1 / cqm=0 / deadzone=21,11 / fast_pskip=1 / chroma_qp_offset=-2 / threads=6 / lookahead_threads=1 / sliced_threads=0 / nr=0 / decimate=1 / interlaced=0 / bluray_compat=0 / constrained_intra=0 / bframes=16 / b_pyramid=2 / b_adapt=1 / b_bias=0 / direct=1 / weightb=1 / open_gop=0 / weightp=2 / keyint=250 / keyint_min=25 / scenecut=40 / intra_refresh=0 / rc_lookahead=40 / rc=crf / mbtree=1 / crf=20.0 / qcomp=0.60 / qpmin=0 / qpmax=69 / qpstep=4 / ip_ratio=1.40 / aq=1:1.00Default : YesForced : Yes
AudioID : 2Format : AC-3Format/Info : Audio Coding 3Mode extension : CM (complete main)Format settings, Endianness : BigCodec ID : A_AC3Duration : 32mn 34sBit rate mode : ConstantBit rate : 448 KbpsChannel(s) : 6 channelsChannel positions : Front: L C R, Side: L R, LFESampling rate : 48.0 KHzBit depth : 16 bitsCompression mode : LossyDelay relative to video : 5msStream size : 104 MiB (6%)Default : YesForced : Yes

Скриншоты


Other forum [Profile] [PM]
Display posts from previous:    
Reply to topic

The time now is: Today 13:34

All times are GMT + 3 Hours



You cannot post new topics in this forum
You cannot reply to topics in this forum
You cannot edit your posts in this forum
You cannot delete your posts in this forum
You cannot vote in polls in this forum
You cannot attach files in this forum
You cannot download files in this forum