Today is a free download without charge Download

Хичкок / Hitchcock ( Саша Джерваси ) (2012, Драма, Биография ) [1080p] BDRemux

Reply to topic
 
Author
Message

Витек1 ®

Gender:

Longevity: 8 years 3 months

Posts: 451

Location: Житомир

Торрент-статистика

Post 25-Mar-2013 12:38

[Quote]

Хичкок / Hitchcock -«История о фильме, который потряс мир»- Русское название: Хичкок
Оригинальное название: Hitchcock
Год выпуска: 2012
Жанр: Драма, Биография-Описание фильма:
Известный режиссер отваживается на эксперимент: отойти от ставших его визитной карточкой дорогостоящих фильмов в жанре «саспенс» и снять скромную, к тому же черно-белую картину «Психо». В процессе работы будущий «мастер страха» вглядывается в темные бездны человеческой души, чтобы найти те нервные окончания, прикасаясь к которым он мог бы, как по клавишам, сыграть на эмоциях зрителя настоящую симфонию ужаса.-Режиссер: Саша Джерваси
Актеры: Энтони Хопкинс, Хелен Миррен, Скарлетт Йоханссон, Тони Коллетт, Дэнни Хьюстон, Джессика Бил, Майкл Стулбарг, Майкл Уинкотт, Джеймс Д’Арси, Ричард Портноу, Кертвуд Смит, Ральф Маччио, Кай Леннокс, Тара Саммерс, Уоллес Лэнгэм, Пол Шакман, Карри Грэм, Спенсер Гаррет, Терри Роудс, Том Вирту, Карина Дейко, Стивен Ли Аллен, Ричард Чесслер, Фрэнк Коллисон, Мелинда Чилтон, Мэри Энн МакГарри, Джон Абрахамс, Джил МакКинни, Эмма Джейкобс, Спенсер Ли, Шон Макферсон, Джералд В. Касале, Тара Арройяве, Джудит Хоаг, Джош Ео, Даниэль Бургио, Джон Лэси, Ховард Гибсон, Джозетт Превост, Лори Стюарт, Джаэн Мебиус, Ана Маталлана-Продолжительность: 01:38:20
Перевод: Дублированный, Любительский одноголосый
Субтитры: Русские, украинские, английские, испанские- -Видеокодек: MPEG-4 AVC/H.264
Битрейт видео: ~31.2 Mbps
Размер кадра: 1920x1080
Качество видео: BDRemux
Аудио:
1#Русский: AC3, 6 ch, 384 Kbps - Дубляж
2#Русский: AC3, 6 ch, 448 Kbps - Любительский одноголосый [lord666]
3#Английский: DTS-HD MA, 6 ch, 3541 Kbps (DTS, 6 ch, 1510 Kbps)
4#Английский: AC3, 2 ch, 224 Kbps - Комментарии-

MediaInfo

Общее
Уникальный идентификатор : 244952152673900196311199228208276313246 (0xB848118E4E83852FBBDFCBCCB088149E)
Полное имя : D:\Hichkok.2012.x264.MPEG-4.Blu-Ray.Remux.(1080p).mkv
Формат : Matroska
Версия формата : Version 2
Размер файла : 23,8 Гбайт
Продолжительность : 1 ч. 38 м.
Режим общего битрейта : Переменный
Общий поток : 34,6 Мбит/сек
Название фильма : Hitchcock
Дата кодирования : UTC 2013-03-24 09:30:33
Программа кодирования : mkvmerge v4.3.0 ('Escape from the Island') сборка от Sep 5 2010 10:30:51
Библиотека кодирования : libebml v1.0.0 + libmatroska v1.0.0
Видео
Идентификатор : 1
Формат : AVC
Формат/Информация : Advanced Video Codec
Профиль формата : [url=mailto:[email protected]][email protected][/url]
Параметр CABAC формата : Да
Параметр ReFrames формата : 4 кадра
Режим смешивания : Container [email protected]
Идентификатор кодека : V_MPEG4/ISO/AVC
Продолжительность : 1 ч. 38 м.
Вид битрейта : Переменный
Битрейт : 31,3 Мбит/сек
Максимальный битрейт : 32,0 Мбит/сек
Ширина : 1920 пикселей
Высота : 1080 пикселей
Соотношение сторон : 16:9
Режим частоты кадров : Постоянный
Частота кадров : 23,976 кадра/сек
Цветовое пространство : YUV
Субдискретизация насыщенности : 4:2:0
Битовая глубина : 8 бит
Тип развёртки : Прогрессивная
Бит/(Пиксели*Кадры) : 0.629
Размер потока : 21,5 Гбайт (90%)
Язык : English
Default : Да
Forced : Нет
Аудио #1
Идентификатор : 2
Формат : AC-3
Формат/Информация : Audio Coding 3
Расширение режима : CM (complete main)
Параметр Endianness формата : Big
Идентификатор кодека : A_AC3
Продолжительность : 1 ч. 38 м.
Вид битрейта : Постоянный
Битрейт : 384 Кбит/сек
Каналы : 6 каналов
Расположение каналов : Front: L C R, Side: L R, LFE
Частота : 48,0 КГц
Битовая глубина : 16 бит
Метод сжатия : С потерями
Размер потока : 270 Мбайт (1%)
Заголовок : Дублированный - [R5]
Язык : Russian
Default : Нет
Forced : Да
Аудио #2
Идентификатор : 3
Формат : AC-3
Формат/Информация : Audio Coding 3
Расширение режима : CM (complete main)
Параметр Endianness формата : Big
Идентификатор кодека : A_AC3
Продолжительность : 1 ч. 38 м.
Вид битрейта : Постоянный
Битрейт : 448 Кбит/сек
Каналы : 6 каналов
Расположение каналов : Front: L C R, Side: L R, LFE
Частота : 48,0 КГц
Битовая глубина : 16 бит
Метод сжатия : С потерями
Размер потока : 315 Мбайт (1%)
Заголовок : Любительский -[ lord666]
Язык : Russian
Default : Да
Forced : Нет
Аудио #3
Идентификатор : 4
Формат : DTS
Формат/Информация : Digital Theater Systems
Профиль формата : MA / Core
Идентификатор кодека : A_DTS
Продолжительность : 1 ч. 38 м.
Вид битрейта : Переменный
Битрейт : 1561 Кбит/сек / 1510 Кбит/сек
Каналы : 6 каналов
Расположение каналов : Front: L C R, Side: L R, LFE
Частота : 48,0 КГц
Битовая глубина : 24 бит
Метод сжатия : Без потерь / Lossy
Заголовок : Оригинал
Язык : English
Default : Нет
Forced : Нет
Аудио #4
Идентификатор : 5
Формат : AC-3
Формат/Информация : Audio Coding 3
Расширение режима : CM (complete main)
Параметр Endianness формата : Big
Идентификатор кодека : A_AC3
Продолжительность : 1 ч. 38 м.
Вид битрейта : Постоянный
Битрейт : 224 Кбит/сек
Каналы : 2 канала
Расположение каналов : Front: L R
Частота : 48,0 КГц
Битовая глубина : 16 бит
Метод сжатия : С потерями
Размер потока : 158 Мбайт (1%)
Заголовок : Commentary
Язык : English
Default : Нет
Forced : Нет
Текст #1
Идентификатор : 6
Формат : UTF-8
Идентификатор кодека : S_TEXT/UTF8
Идентификатор кодека/Информация : UTF-8 Plain Text
Заголовок : R5
Язык : Russian
Default : Нет
Forced : Нет
Текст #2
Идентификатор : 7
Формат : UTF-8
Идентификатор кодека : S_TEXT/UTF8
Идентификатор кодека/Информация : UTF-8 Plain Text
Заголовок : jerichOne
Язык : Russian
Default : Нет
Forced : Нет
Текст #3
Идентификатор : 8
Формат : UTF-8
Идентификатор кодека : S_TEXT/UTF8
Идентификатор кодека/Информация : UTF-8 Plain Text
Язык : Ukrainian
Default : Нет
Forced : Нет
Текст #4
Идентификатор : 9
Формат : UTF-8
Идентификатор кодека : S_TEXT/UTF8
Идентификатор кодека/Информация : UTF-8 Plain Text
Язык : Spanish
Default : Нет
Forced : Нет
Текст #5
Идентификатор : 10
Формат : UTF-8
Идентификатор кодека : S_TEXT/UTF8
Идентификатор кодека/Информация : UTF-8 Plain Text
Язык : English
Default : Нет
Forced : Нет
Меню
00:00:00.000 : :Chapter 01
00:02:26.729 : :Chapter 02
00:05:17.108 : :Chapter 03
00:08:41.145 : :Chapter 04
00:12:26.162 : :Chapter 05
00:14:41.380 : :Chapter 06
00:19:07.396 : :Chapter 07
00:20:56.838 : :Chapter 08
00:23:48.677 : :Chapter 09
00:25:14.221 : :Chapter 10
00:27:13.423 : :Chapter 11
00:31:10.451 : :Chapter 12
00:32:15.808 : :Chapter 13
00:34:21.726 : :Chapter 14
00:37:30.122 : :Chapter 15
00:39:06.552 : :Chapter 16
00:43:22.975 : :Chapter 17
00:45:50.998 : :Chapter 18
00:49:19.498 : :Chapter 19
00:52:54.796 : :Chapter 20
00:58:12.071 : :Chapter 21
01:00:32.837 : :Chapter 22
01:03:56.457 : :Chapter 23
01:10:03.866 : :Chapter 24
01:15:35.113 : :Chapter 25
01:19:40.817 : :Chapter 26
01:22:38.495 : :Chapter 27
01:23:54.237 : :Chapter 28
01:25:57.068 : :Chapter 29
01:28:13.413 : :Chapter 30
01:29:46.130 : :Chapter 31
01:31:38.493 : :Chapter 32
Скриншоты:
       

_________________
Скачал сам, дай скачать другому!!!Не забудь сказать -
Other forum [Profile] [PM]
Display posts from previous:    
Reply to topic

The time now is: Today 13:23

All times are GMT + 3 Hours



You cannot post new topics in this forum
You cannot reply to topics in this forum
You cannot edit your posts in this forum
You cannot delete your posts in this forum
You cannot vote in polls in this forum
You cannot attach files in this forum
You cannot download files in this forum