Today is a free download without charge Download

Хичкок / Hitchcock ( Саша Джерваси ) (2012, Драма, История, Биография ) BDRip [1080p]

Reply to topic
 
Author
Message

Витек1 ®

Gender:

Longevity: 8 years 3 months

Posts: 451

Location: Житомир

Торрент-статистика

Post 25-Mar-2013 12:25

[Quote]

Хичкок / Hitchcock
«История о фильме, который потряс мир»
- Русское название: Хичкок
Оригинальное название: Hitchcock
Год выпуска: 2012
Производство: США / Cold Spring Pictures, Fox Searchlight Pictures, The Montecito Picture Company
Жанр: Драма, История, Биография
Перевод: Дублированный [лицензия]
Субтитры: Вшитые отключаемые
Язык субтитров: Русский (R5, jerichOne), Украинский, Английский, Испанский
Дата мировой премьеры: 1 ноября 2012
Дата российской премьеры: 21 февраля 2013, «Двадцатый Век Фокс СНГ»
Дата выхода DVD релиза: 4 апреля 2013, «Двадцатый Век Фокс СНГ»
Дата выхода Blu-Ray релиза: 4 апреля 2013, «Двадцатый Век Фокс СНГ»
Режиссер: Саша Джерваси
Актеры: Майкл Стулбарг, Энтони Хопкинс, Хелен Миррен, Скарлетт Йоханссон, Тони Коллетт, Дэнни Хьюстон, Джессика Бил, Майкл Уинкотт, Джеймс Д’Арси, Ричард Портноу
Описание фильма:
Известный режиссер отваживается на эксперимент: отойти от ставших его визитной карточкой дорогостоящих фильмов в жанре «саспенс» и снять скромную, к тому же черно-белую картину «Психо». В процессе работы будущий «мастер страха» вглядывается в темные бездны человеческой души, чтобы найти те нервные окончания, прикасаясь к которым он мог бы, как по клавишам, сыграть на эмоциях зрителя настоящую симфонию ужаса. Продолжительность: 01:38:20
Качество видео: BDRip [CHD]
Видеокодек: MPEG-4 AVC/H.264
Битрейт видео: ~10,0 Мбит/сек
Размер кадра: 1920x796
Аудио #1: Русский (Dolby AC3, 6 ch) 384 Кбит/сек
Аудио #2: Английский (Dolby AC3, 6 ch) 640 Кбит/сек

MediaInfo:

Общее
Уникальный идентификатор : 172880258629615368319049260109842022990 (0x820F86D5141316D2A80573D4FF57024E)
Полное имя : H:\Hichkok.2012.D.BDRip.1080p.mkv
Формат : Matroska
Версия формата : Version 2
Размер файла : 7,58 Гбайт
Продолжительность : 1 ч. 38 м.
Общий поток : 11,0 Мбит/сек
Дата кодирования : UTC 2013-03-23 21:41:18
Программа кодирования : mkvmerge v5.2.0 ('I can't explain') built on Dec 18 2011 18:12:03
Библиотека кодирования : libebml v1.2.3 + libmatroska v1.3.0
Видео
Идентификатор : 1
Формат : AVC
Формат/Информация : Advanced Video Codec
Профиль формата : [url=mailto:[email protected]][email protected][/url]
Параметр CABAC формата : Да
Параметр ReFrames формата : 4 кадра
Идентификатор кодека : V_MPEG4/ISO/AVC
Продолжительность : 1 ч. 38 м.
Битрейт : 10,0 Мбит/сек
Ширина : 1920 пикселей
Высота : 796 пикселей
Соотношение сторон : 2,40:1
Частота кадров : 23,976 кадра/сек
Цветовое пространство : YUV
Субдискретизация насыщенности : 4:2:0
Битовая глубина : 8 бит
Тип развёртки : Прогрессивная
Бит/(Пиксели*Кадры) : 0.274
Размер потока : 6,72 Гбайт (89%)
Заголовок : Hitchcock.2012.BluRay.1080p.DTS.x264-CHD
Библиотека кодирования : x264 core 120 r2120 0c7dab9
Настройки программы : cabac=1 / ref=4 / deblock=1:-3:-3 / analyse=0x3:0x113 / me=umh / subme=10 / psy=1 / psy_rd=1.05:0.10 / mixed_ref=1 / me_range=48 / chroma_me=1 / trellis=2 / 8x8dct=1 / cqm=0 / deadzone=21,11 / fast_pskip=0 / chroma_qp_offset=-2 / threads=12 / sliced_threads=0 / nr=0 / decimate=1 / interlaced=0 / bluray_compat=0 / constrained_intra=0 / bframes=6 / b_pyramid=2 / b_adapt=2 / b_bias=0 / direct=3 / weightb=1 / open_gop=0 / weightp=2 / keyint=250 / keyint_min=23 / scenecut=40 / intra_refresh=0 / rc_lookahead=40 / rc=2pass / mbtree=0 / bitrate=10024 / ratetol=2.0 / qcomp=0.70 / qpmin=0 / qpmax=69 / qpstep=4 / cplxblur=20.0 / qblur=0.5 / vbv_maxrate=40000 / vbv_bufsize=30000 / nal_hrd=none / ip_ratio=1.40 / pb_ratio=1.30 / aq=2:1.00
Язык : English
Default : Да
Forced : Да
Аудио #1
Идентификатор : 2
Формат : AC-3
Формат/Информация : Audio Coding 3
Расширение режима : CM (complete main)
Идентификатор кодека : A_AC3
Продолжительность : 1 ч. 38 м.
Вид битрейта : Постоянный
Битрейт : 384 Кбит/сек
Каналы : 6 каналов
Расположение каналов : Front: L C R, Side: L R, LFE
Частота : 48,0 КГц
Битовая глубина : 16 бит
Метод сжатия : С потерями
Размер потока : 270 Мбайт (3%)
Заголовок : DD 5.1 @ 384 kbps - Dub, R5
Язык : Russian
Default : Да
Forced : Да
Аудио #2
Идентификатор : 3
Формат : AC-3
Формат/Информация : Audio Coding 3
Расширение режима : CM (complete main)
Идентификатор кодека : A_AC3
Продолжительность : 1 ч. 38 м.
Вид битрейта : Постоянный
Битрейт : 640 Кбит/сек
Каналы : 6 каналов
Расположение каналов : Front: L C R, Side: L R, LFE
Частота : 48,0 КГц
Битовая глубина : 16 бит
Метод сжатия : С потерями
Размер потока : 450 Мбайт (6%)
Заголовок : DD 5.1 @ 640 kbps
Язык : English
Default : Нет
Forced : Нет
Текст #1
Идентификатор : 4
Формат : UTF-8
Идентификатор кодека : S_TEXT/UTF8
Идентификатор кодека/Информация : UTF-8 Plain Text
Заголовок : R5
Язык : Russian
Default : Нет
Forced : Нет
Текст #2
Идентификатор : 5
Формат : UTF-8
Идентификатор кодека : S_TEXT/UTF8
Идентификатор кодека/Информация : UTF-8 Plain Text
Заголовок : jerichOne
Язык : Russian
Default : Нет
Forced : Нет
Текст #3
Идентификатор : 6
Формат : UTF-8
Идентификатор кодека : S_TEXT/UTF8
Идентификатор кодека/Информация : UTF-8 Plain Text
Язык : Ukrainian
Default : Нет
Forced : Нет
Текст #4
Идентификатор : 7
Формат : UTF-8
Идентификатор кодека : S_TEXT/UTF8
Идентификатор кодека/Информация : UTF-8 Plain Text
Язык : English
Default : Нет
Forced : Нет
Текст #5
Идентификатор : 8
Формат : UTF-8
Идентификатор кодека : S_TEXT/UTF8
Идентификатор кодека/Информация : UTF-8 Plain Text
Язык : Spanish
Default : Нет
Forced : Нет
Меню
00:00:00.000 : en:00:00:00.000
00:02:26.730 : en:00:02:26.730
00:05:17.108 : en:00:05:17.108
00:08:41.146 : en:00:08:41.146
00:12:26.162 : en:00:12:26.162
00:14:41.380 : en:00:14:41.380
00:19:07.396 : en:00:19:07.396
00:20:56.839 : en:00:20:56.839
00:23:48.677 : en:00:23:48.677
00:25:14.221 : en:00:25:14.221
00:27:13.423 : en:00:27:13.423
00:31:10.452 : en:00:31:10.452
00:32:15.809 : en:00:32:15.809
00:34:21.726 : en:00:34:21.726
00:37:30.123 : en:00:37:30.123
00:39:06.553 : en:00:39:06.553
00:43:22.975 : en:00:43:22.975
00:45:50.998 : en:00:45:50.998
00:49:19.498 : en:00:49:19.498
00:52:54.797 : en:00:52:54.797
00:58:12.072 : en:00:58:12.072
01:00:32.838 : en:01:00:32.838
01:03:56.458 : en:01:03:56.458
01:10:03.866 : en:01:10:03.866
01:15:35.114 : en:01:15:35.114
01:19:40.818 : en:01:19:40.818
01:22:38.495 : en:01:22:38.495
01:23:54.238 : en:01:23:54.238
01:25:57.069 : en:01:25:57.069
01:28:13.413 : en:01:28:13.413
01:29:46.131 : en:01:29:46.131
01:31:38.493 : en:01:31:38.493
Скриншоты:
       
       

_________________
Скачал сам, дай скачать другому!!!Не забудь сказать -
Other forum [Profile] [PM]

doyble

Longevity: 8 years 9 months

Posts: 13

Торрент-статистика

Post 25-Mar-2013 19:21 (after 6 hours)

[Quote]

Где раздающий?Встаньте на раздачу
Other forum [Profile] [PM]

Dracula

Longevity: 7 years 6 months

Posts: 11225

Торрент-статистика

Post 02-May-2013 10:20 (after 1 month 7 days)

Топик был перенесен из форума Зарубежное кино (DVD) в форум Зарубежное кино (HD Video)


RUGUI
 
Display posts from previous:    
Reply to topic

The time now is: Today 11:50

All times are GMT + 3 Hours



You cannot post new topics in this forum
You cannot reply to topics in this forum
You cannot edit your posts in this forum
You cannot delete your posts in this forum
You cannot vote in polls in this forum
You cannot attach files in this forum
You cannot download files in this forum