Сегодня идет свободное скачивание без начисления Download

А вы любили когда-нибудь? (Игорь Усов) (1973, Музыкальная комедия) DVDRip

Ответить на тему
 
Автор
Сообщение

UndegraundMen ®

Стаж: 5 лет 7 месяцев

Сообщений: 25860

Торрент-статистика

Пост 25-Мар-2013 03:31

[Цитировать]

А вы любили когда-нибудь?- Русское название: А вы любили когда-нибудь?
Год выпуска: 1973
Жанр: Музыкальная комедия
Описание фильма:
Эксцентричная комедия с музыкой, песнями и плясками на фоне летнего Севастополя. Мальчик Митя полюбил девочку Олю. Казалось бы, обычное дело, но Митина мама стала вдруг злой, мелочной и заносчивой. И тогда верные друзья, дедушки и бабушки, пришли влюбленным на помощь...

Режиссер: Игорь Усов
Актеры: Людмила Шагалова, Сергей Филиппов, Елена Андерегг, Пантелеймон Крымов, Алла Мальцева, Владимир Пучков, Георгий Вицин, Наталья Богданова, Александр Жданов, Виктор Кривонос, Николай Крюков, Марина Полицеймако, Любовь Тищенко, Георгий Штиль, Юрий Соловьёв
Продолжительность: 01:18:33
Видеокодек: Xvid
Битрейт видео: ~1187 kbps
Размер кадра: 640x304
Качество видео: DVDRip
Аудиокодек: MP3, 2ch
Битрейт аудио: 128.00 kbps

MI

Общее
Полное имя : C:\Users\1\Downloads\a_vy_lubili_kogda-nibud.avi
Формат : AVI
Формат/Информация : Audio Video Interleave
Размер файла : 745 Мбайт
Продолжительность : 1 ч. 18 м.
Общий поток : 1326 Кбит/сек
Программа кодирования : VirtualDubMod 1.5.10.2 (build 2540/release)
Библиотека кодирования : VirtualDubMod build 2540/release
Видео
Идентификатор : 0
Формат : MPEG-4 Visual
Профиль формата : Advanced [email protected]
Параметр BVOP формата : 2
Параметр QPel формата : Нет
Параметр GMC формата : Без точки перехода
Параметр матрицы формата : Default (MPEG)
Режим смешивания : Сжатый битовый поток
Идентификатор кодека : XVID
Идентификатор кодека/Подсказка : XviD
Продолжительность : 1 ч. 18 м.
Битрейт : 1188 Кбит/сек
Ширина : 640 пикселей
Высота : 304 пикселя
Соотношение сторон : 2,2:1
Частота кадров : 25,000 кадров/сек
Цветовое пространство : YUV
Субдискретизация насыщенности : 4:2:0
Битовая глубина : 8 бит
Тип развёртки : Прогрессивная
Метод сжатия : С потерями
Бит/(Пиксели*Кадры) : 0.244
Размер потока : 668 Мбайт (90%)
Библиотека кодирования : XviD 1.2.1 (UTC 2008-12-04)
Аудио
Идентификатор : 1
Формат : MPEG Audio
Версия формата : Version 1
Профиль формата : Layer 3
Режим : Joint stereo
Расширение режима : MS Stereo
Идентификатор кодека : 55
Идентификатор кодека/Подсказка : MP3
Продолжительность : 1 ч. 18 м.
Вид битрейта : Постоянный
Битрейт : 128 Кбит/сек
Каналы : 2 канала
Частота : 48,0 КГц
Метод сжатия : С потерями
Размер потока : 71,9 Мбайт (10%)
Выравнивание : Соединение по промежуткам
Продолжительность промежутка : 40 мс. (1,00 видеокадр)
Время предзагрузки промежутка : 504 мс.
Скриншоты:
       
       
Вне форума [Профиль] [ЛС]
Показать сообщения:    
Ответить на тему

Текущее время: Сегодня 14:26

Часовой пояс: GMT + 3



Вы не можете начинать темы
Вы не можете отвечать на сообщения
Вы не можете редактировать свои сообщения
Вы не можете удалять свои сообщения
Вы не можете голосовать в опросах
Вы не можете прикреплять файлы к сообщениям
Вы не можете скачивать файлы