Today is a free download without charge Download

Непослушный слонёнок (Сергей Ромашкин) [2012, короткометражный анимационный фильм, WEBRip]

Reply to topic
 
Author
Message

Omen ®

Longevity: 7 years 11 months

Posts: 181087

Торрент-статистика

Post 25-Mar-2013 01:10

[Quote]

Непослушный слонёнокАфриканская сказка
Год выпуска: 2012
Страна: Россия
Жанр: короткометражный анимационный фильм
Продолжительность: 00:05:06
субтитры: отсутствуют- Режиссёр: Сергей Ромашкин
Роли озвучивали: Деомид Виноградов, Андрей Ярославцев- Описание: Однажды, маленькому Слонёнку надоело его стадо. Огромные взрослые слоны, которые постоянно требуют быть дисциплинированным и послушным. И Слонёнок решил уйти из стада и вообще стать кем ни будь ещё. Зачем обязательно быть слоном? Вокруг столько удивительных животных! Быстроногие газели, таинственные ящерицы, вредные обезьянки, восхитительные фламинго, нахальные попугаи и кусачие крокодилы! Они так больно кусаются! А ведь если вырасти и стать большим слоном, никакие крокодилы будут не страшны. Так может лучше остаться слоном?- Качество: WEBRip
Формат: AVI
Видео кодек: XviD
Аудио кодек: МР3
Видео: 720x400 , (1.80:1), 25 fps, XviD build 65 ~1905 kbps avg, 0.26 bit/pixel
Аудио: 44.100 kHz, MPEG Layer 3, 2 ch, ~128.00 kbps avg-

MediaInfo

Общее
Полное имя : H:\Отечественные мультфильмы\Непослушный слонёнок.2012.WEBRip.avi
Формат : AVI
Формат/Информация : Audio Video Interleave
Размер файла : 74,7 Мбайт
Продолжительность : 5 м. 6 с.
Общий поток : 2043 Кбит/сек
Программа кодирования : VirtualDubMod 1.5.10.3 (build 2550/release)
Библиотека кодирования : VirtualDubMod build 2550/release
Видео
Идентификатор : 0
Формат : MPEG-4 Visual
Профиль формата : Advanced [email protected]
Параметр BVOP формата : 2
Параметр QPel формата : Нет
Параметр GMC формата : Без точки перехода
Параметр матрицы формата : Выборочная
Идентификатор кодека : XVID
Идентификатор кодека/Подсказка : XviD
Продолжительность : 5 м. 6 с.
Битрейт : 1905 Кбит/сек
Ширина : 720 пикселей
Высота : 400 пикселей
Соотношение сторон : 16:9
Частота кадров : 25,000 кадров/сек
Цветовое пространство : YUV
Субдискретизация насыщенности : 4:2:0
Битовая глубина : 8 бит
Тип развёртки : Прогрессивная
Метод сжатия : С потерями
Бит/(Пиксели*Кадры) : 0.265
Размер потока : 69,7 Мбайт (93%)
Библиотека кодирования : XviD 65
Аудио
Идентификатор : 1
Формат : MPEG Audio
Версия формата : Version 1
Профиль формата : Layer 3
Режим : Joint stereo
Расширение режима : MS Stereo
Идентификатор кодека : 55
Идентификатор кодека/Подсказка : MP3
Продолжительность : 5 м. 6 с.
Вид битрейта : Постоянный
Битрейт : 128 Кбит/сек
Каналы : 2 канала
Частота : 44,1 КГц
Метод сжатия : С потерями
Размер потока : 4,68 Мбайт (6%)
Выравнивание : Разделение по промежуткам
Продолжительность промежутка : 40 мс. (1,00 видеокадр)
Время предзагрузки промежутка : 500 мс.
Библиотека кодирования : LAME3.99r
Настройки программы : -m j -V 4 -q 3 -lowpass 17 -b 128
Other forum [Profile] [PM]
Display posts from previous:    
Reply to topic

The time now is: Today 14:43

All times are GMT + 3 Hours



You cannot post new topics in this forum
You cannot reply to topics in this forum
You cannot edit your posts in this forum
You cannot delete your posts in this forum
You cannot vote in polls in this forum
You cannot attach files in this forum
You cannot download files in this forum