Today is a free download without charge Download

Один на всех (2012) (серии 1-2 из 2) HDTV [1080i]

Reply to topic
 
Author
Message

UndegraundMen ®

Longevity: 8 years 9 months

Posts: 25145

Торрент-статистика

Post 24-Mar-2013 20:44

[Quote]

Один на всех (2012) (серии 1-2 из 2) HDTV [1080i]- Русское название: Один на всех
Производство: Студия "Проект"
Год выпуска: 2012
Жанр: Драма
Режиссер: Алексей Праздников
Актеры: Александр Дьяченко, Карина Разумовская, Зоя Буряк, Оксана Базилевич, Сергей Лосев и другие.
Описание фильма:
Подполковник в отставке Евгений Геннадьевич Александров разводится с женой и оставляет ей все нажитое имущество. В сорок лет Евгений Геннадьевич оказывается без крыши над головой, без семьи, без работы. Он возвращается в город своего детства - в пустующую после смерти его матери квартиру в старом доме. Приехав, Александров обнаруживает, что в доме, где прошло его детство, остались только женщины: старушки, пожилые женщины с дочками, молодые одинокие мамы с детьми. Александров чувствует, что нужен им. Ведь каждая из них видит в нем того мужчину, которого ей отчаянно не хватает — мужа, отца, сына, друга.

Дата российской премьеры: 23.03.2013
Продолжительность: 2 x ~ 01:30:00
Качество видео: HDTV
Видеокодек: AVC/H.264
Битрейт видео: ~7800 Kbps
Размер кадра: 1920x1080
Аудиокодек: AC3
Битрейт аудио: 2 ch, 192 Kbps

MediaInfo:

Код:
Общее
Уникальный идентификатор : 197100193211122727213511962106723356764 (0x94481DCD5F489AB18F170B7C8648D05C)
Полное имя : G:\DOWNLOADS\Один на всех (2012) HDTV 1080\Один на всех - 1 серия.mkv
Формат : Matroska
Версия формата : Version 2
Размер файла : 5,07 Гбайт
Продолжительность : 1 ч. 29 м.
Общий поток : 8128 Кбит/сек
Дата кодирования : UTC 2013-03-24 08:02:19
Программа кодирования : mkvmerge v5.6.0 ('Kenya Kane') built on Jun 29 2012 15:01:44
Библиотека кодирования : libebml v1.2.3 + libmatroska v1.3.0
Видео
Идентификатор : 1
Формат : AVC
Формат/Информация : Advanced Video Codec
Профиль формата : [url=mailto:[email protected]][email protected][/url]
Параметр CABAC формата : Да
Параметр ReFrames формата : 3 кадра
Параметр GOP формата : M=3, N=30
Идентификатор кодека : V_MPEG4/ISO/AVC
Продолжительность : 1 ч. 29 м.
Битрейт : 7775 Кбит/сек
Ширина : 1920 пикселей
Высота : 1080 пикселей
Соотношение сторон : 16:9
Режим частоты кадров : Постоянный
Частота кадров : 25,000 кадров/сек
Цветовое пространство : YUV
Субдискретизация насыщенности : 4:2:0
Битовая глубина : 8 бит
Тип развёртки : MBAFF
Бит/(Пиксели*Кадры) : 0.150
Размер потока : 4,84 Гбайт (96%)
Default : Да
Forced : Нет
Аудио
Идентификатор : 2
Формат : AC-3
Формат/Информация : Audio Coding 3
Расширение режима : CM (complete main)
Параметр Endianness формата : Big
Идентификатор кодека : A_AC3
Продолжительность : 1 ч. 29 м.
Вид битрейта : Постоянный
Битрейт : 192 Кбит/сек
Каналы : 2 канала
Расположение каналов : Front: L R
Частота : 48,0 КГц
Битовая глубина : 16 бит
Метод сжатия : С потерями
Размер потока : 123 Мбайт (2%)
Default : Да
Forced : Нет
Скриншоты:
Other forum [Profile] [PM]
Display posts from previous:    
Reply to topic

The time now is: Today 23:58

All times are GMT + 3 Hours



You cannot post new topics in this forum
You cannot reply to topics in this forum
You cannot edit your posts in this forum
You cannot delete your posts in this forum
You cannot vote in polls in this forum
You cannot attach files in this forum
You cannot download files in this forum