Today is a free download without charge Download

Кабаре-шоу "Crazy Horse" / Crazy Horse (Фредерик Вайсман) (2011, Мьюзикл, эротика) BDRip [720p] [EN]

Reply to topic
 
Author
Message

Prince ®

Gender:

Longevity: 8 years

Posts: 18

Торрент-статистика

Post 24-Mar-2013 13:50

[Quote]

Кабаре-шоу "Crazy Horse" / Crazy Horse- Русское название: Кабаре-шоу "Crazy Horse"
Оригинальное название: Crazy Horse
Год выпуска: 2011
Производство: США, Франция, Ideale Audience, Zipporah Films, Crazy Horse Productions
Жанр: Мьюзикл, эротика
Перевод: Отсутствует
Язык: Английский
Субтитры: Английские
Вид субтитров: Вшитые (отключаемые)
Режиссер: Фредерик Вайсман
Актеры: Naamah Saint-Hilaire, Дэйзи Блу, Филипп Декуфле, Филипп Катерин
Описание фильма:
Crazy Horse (фр. Le Crazy Horse de Paris — дикая, необъезженная лошадь) — знаменитое парижское кабаре, основанное в 1951 году.
Отличительной чертой, изюминкой, стал принцип отбора танцоров и танцовщиц. Они должны были обладать весьма жестким, ставшим позже характерно узнаваемым, «фирменным» набором внешних данных, таких как высокий рост, стройность, подтянутость, общая схожесть черт и даже объём и форма груди.
В своё время в «Crazy Horse» выступали: Дита фон Тиз, Кармен Электра, Памелла Андерсон и другие
Продолжительность: 02:13:52
Качество видео: BDRip [720p]
Видеокодек: MPEG-4 AVC
Битрейт видео: 8453 Кбит/сек
Размер кадра: 1280x694
Аудио: Английский, DTS , 6 ch, 1510 Кбит/сек

x264 log

Код:
x264 [info]: frame I:1005 Avg QP:14.98 size:133012
x264 [info]: frame P:34791 Avg QP:16.69 size: 79164
x264 [info]: frame B:156981 Avg QP:19.18 size: 36954
x264 [info]: consecutive B-frames: 0.8% 0.7% 3.0% 8.0% 13.3% 59.2% 6.7% 1.1% 4.9% 2.2%
encoded 192777 frames, 2.32 fps, 8653.95 kb/s

MediaInfo

Код:
Общее
Уникальный идентификатор                 : 184518736649414254901574614898242085881 (0x8AD10419F9D547DCA3BFEFBA2811E3F9)
Полное имя                               : E:\Раздачи\Видео\Crazy Horse 720p BDRip.mkv
Формат                                   : Matroska
Версия формата                           : Version 2
Размер файла                             : 9,51 Гбайт
Продолжительность                        : 2 ч. 13 м.
Общий поток                              : 10,2 Мбит/сек
Дата кодирования                         : UTC 2012-06-29 02:21:27
Программа кодирования                    : mkvmerge v5.6.0 ('Kenya Kane') built on May 27 2012 16:44:04
Библиотека кодирования                   : libebml v1.2.3 + libmatroska v1.3.0
Видео
Идентификатор                            : 1
Формат                                   : AVC
Формат/Информация                        : Advanced Video Codec
Профиль формата                          : [url=mailto:High@L4.1]High@L4.1[/url]
Параметр CABAC формата                   : Да
Параметр ReFrames формата                : 9 кадров
Идентификатор кодека                     : V_MPEG4/ISO/AVC
Продолжительность                        : 2 ч. 13 м.
Битрейт                                  : 8453 Кбит/сек
Ширина                                   : 1280 пикселей
Высота                                   : 694 пикселя
Соотношение сторон                       : 1,85:1
Частота кадров                           : 24,000 кадра/сек
Цветовое пространство                    : YUV
Субдискретизация насыщенности            : 4:2:0
Битовая глубина                          : 8 бит
Тип развёртки                            : Прогрессивная
Бит/(Пиксели*Кадры)                      : 0.397
Размер потока                            : 7,90 Гбайт (83%)
Заголовок                                : Crazy Horse 2011
Библиотека кодирования                   : x264 core 125 r2200 999b753
Настройки программы                      : cabac=1 / ref=9 / deblock=1:-3:-3 / analyse=0x3:0x113 / me=tesa / subme=11 / psy=1 / psy_rd=1.05:0.00 / mixed_ref=1 / me_range=16 / chroma_me=1 / trellis=2 / 8x8dct=1 / cqm=0 / deadzone=21,11 / fast_pskip=0 / chroma_qp_offset=-2 / threads=12 / lookahead_threads=2 / sliced_threads=0 / nr=0 / decimate=0 / interlaced=0 / bluray_compat=0 / constrained_intra=0 / bframes=9 / b_pyramid=2 / b_adapt=2 / b_bias=0 / direct=3 / weightb=1 / open_gop=0 / weightp=2 / keyint=250 / keyint_min=24 / scenecut=40 / intra_refresh=0 / rc=crf / mbtree=0 / crf=17.5 / qcomp=0.70 / qpmin=0 / qpmax=69 / qpstep=4 / ip_ratio=1.40 / pb_ratio=1.30 / aq=1:0.75
Язык                                     : French
Default                                  : Да
Forced                                   : Нет
Коэффициенты матрицы                     : BT.709-5, BT.1361, IEC 61966-2-4 709, SMPTE RP177
Аудио
Идентификатор                            : 2
Формат                                   : DTS
Формат/Информация                        : Digital Theater Systems
Идентификатор кодека                     : A_DTS
Продолжительность                        : 2 ч. 13 м.
Вид битрейта                             : Постоянный
Битрейт                                  : 1510 Кбит/сек
Каналы                                   : 6 каналов
Расположение каналов                     : Front: L C R, Side: L R, LFE
Частота                                  : 48,0 КГц
Битовая глубина                          : 24 бит
Метод сжатия                             : С потерями
Размер потока                            : 1,41 Гбайт (15%)
Заголовок                                : DTS @ 6ch 1509 Kbps
Язык                                     : French
Default                                  : Да
Forced                                   : Нет
Текст
Идентификатор                            : 3
Формат                                   : UTF-8
Идентификатор кодека                     : S_TEXT/UTF8
Идентификатор кодека/Информация          : UTF-8 Plain Text
Язык                                     : English
Default                                  : Да
Forced                                   : Нет
Меню
00:00:00.000                             : en:00:00:00.000
00:09:31.000                             : en:00:09:31.000
00:16:53.167                             : en:00:16:53.167
00:29:03.833                             : en:00:29:03.833
00:34:49.417                             : en:00:34:49.417
00:43:18.750                             : en:00:43:18.750
00:51:45.792                             : en:00:51:45.792
00:57:46.208                             : en:00:57:46.208
01:05:24.917                             : en:01:05:24.917
01:11:44.125                             : en:01:11:44.125
01:19:56.083                             : en:01:19:56.083
01:25:35.167                             : en:01:25:35.167
01:33:09.208                             : en:01:33:09.208
01:42:07.500                             : en:01:42:07.500
01:47:20.292                             : en:01:47:20.292
01:55:38.708                             : en:01:55:38.708
02:05:30.750                             : en:02:05:30.750
02:09:35.333                             : en:02:09:35.333
Скриншоты:
       
       -
Other forum [Profile] [PM]
Display posts from previous:    
Reply to topic

The time now is: Today 09:49

All times are GMT + 3 Hours



You cannot post new topics in this forum
You cannot reply to topics in this forum
You cannot edit your posts in this forum
You cannot delete your posts in this forum
You cannot vote in polls in this forum
You cannot attach files in this forum
You cannot download files in this forum