Today is a free download without charge Download

Интервью с убийцей / Interview with a Hitman ( Перри Бхэндэл ) (2012, Боевик, Триллер ) BDRip [H.264/720p-LQ] [EN]

Reply to topic
 
Author
Message

Витек1 ®

Gender:

Longevity: 8 years 3 months

Posts: 451

Location: Житомир

Торрент-статистика

Post 24-Mar-2013 10:08

[Quote]

Интервью с убийцей / Interview with a Hitman - Русское название: Интервью с убийцей
Оригинальное название: Interview with a Hitman
Год выпуска: 2012
Жанр: Боевик, Триллер
Описание фильма:
Не доверяй никому! Ничего не чувствуй! Никогда не проигрывай! Эти три правила помогли Виктору достичь вершины карьеры и стать элитным наемным убийцей. Но однажды те, кто обычно делал заказ ему, получили заказ на него и Виктор вынужден бежать из страны, инсценировав свою смерть. Его путь лежит на родину — в Румынию, где живут люди, которые хотят убить его.
Режиссер: Перри Бхэндэл
Актеры: Люк Госс, Кэролайн Tиллетте, Стивен Маркус, Молли Хэрмон, Бранко Томович
Продолжительность: 01:35:49
Перевод: Отсутствует
Язык: Английский

Видеокодек: MPEG-4 AVC/H.264
Битрейт видео: ~3 150 Kbps
Размер кадра: 1280x696
Качество видео: BDRip
Аудиокодек: AC3 5.1
Битрейт аудио: 448 Kbps
Сэмпл: Ссылка

MediaInfo

General
Complete name Interview.With.A.Hitman.2012.720p.BRRip.X264.AC3-PTpOWeR\Interview.With.A.Hitman.2012.720p.BRRip.X264.AC3-PTpOWeR.mkv
Format : Matroska
File size : 2.36 GiB
Duration : 1h 35mn
Overall bit rate : 3 529 Kbps
Writing application : AVI-Mux GUI 1.17.8.3, Feb 16 201019:42:50
Video
ID : 1
Format : AVC
Format/Info : Advanced Video Codec
Format profile : [url=mailto:[email protected]][email protected][/url]
Format settings, CABAC : Yes
Format settings, ReFrames : 2 frames
Codec ID : V_MPEG4/ISO/AVC
Duration : 1h 35mn
Bit rate : 3 150 Kbps
Width : 1 280 pixels
Height : 696 pixels
Display aspect ratio : 1.85:1
Frame rate mode : Variable / Variable
Frame rate : 23.976 fps
Color space : YUV
Chroma subsampling : 4:2:0
Bit depth : 8 bits
Scan type : Progressive
Bits/(Pixel*Frame) : 0.147
Stream size : 2.02 GiB (85%)
Writing library : x264 core 112 r1834 a51816a
Audio
ID : 2
Format : AC-3
Format/Info : Audio Coding 3
Mode extension : CM (complete main)
Format settings, Endianness : Big
Codec ID : A_AC3
Duration : 1h 35mn
Bit rate mode : Constant
Bit rate : 448 Kbps
Channel(s) : 6 channels
Channel positions : Front: L C R, Side: L R, LFE
Sampling rate : 48.0 KHz
Bit depth : 16 bits
Compression mode : Lossy
Stream size : 307 MiB (13%)
Title : 7s-i-w-a-h-12-720p
Language : English
Default : Yes
Forced : No

Screenlist

 
Скриншоты:
   
   

_________________
Скачал сам, дай скачать другому!!!Не забудь сказать -
Other forum [Profile] [PM]
Similar theme
Forum Topic Author Torrent Replies Last Post
./templates/default/images/folder_dl.gif Развлекательные телепередачи и шоу, приколы и юмор Отличный Новый год на Пятом. Российский музыкальный хит-парад интернета [эфир 01.01.2013] (2013) TVRip Omen
0 | 1

0 | 839

0

2013-01-28 04:32
Omen Latest
./templates/default/images/folder_dl.gif Техническая и научно-популярная литература В.В.Печеровый | Профилактика и ремонт МФУ и лазерных принтеров Canon и Hewlett Packard (2013) [DJVU] Omen
1 | 0

0 | 861

12

2014-07-22 18:05
Omen Latest
./templates/default/images/folder_dl.gif Техническая и научно-популярная литература Эндрю Блам | Сеть. Как устроен и как работает Интернет (2014) [PDF, DOCX, FB2, EPUB] Omen
0 | 1

0 | 501

10

2015-06-10 12:32
Omen Latest
Display posts from previous:    
Reply to topic

The time now is: Today 09:41

All times are GMT + 3 Hours



You cannot post new topics in this forum
You cannot reply to topics in this forum
You cannot edit your posts in this forum
You cannot delete your posts in this forum
You cannot vote in polls in this forum
You cannot attach files in this forum
You cannot download files in this forum