Today is a free download without charge Download

Интервью с убийцей / Interview with a Hitman ( Перри Бхэндэл ) (2012, Боевик, Триллер ) [720p] BDRip

Reply to topic
 
Author
Message

Витек1 ®

Gender:

Longevity: 8 years 3 months

Posts: 451

Location: Житомир

Торрент-статистика

Post 24-Mar-2013 09:53

[Quote]

Интервью с убийцей / Interview with a Hitman - Русское название: Интервью с убийцей
Оригинальное название: Interview with a Hitman
Год выпуска: 2012
Производство: Великобритания / Kirlian Pictures, Northern Film and Media, Northstar Ventures
Жанр: Боевик, Триллер
Перевод: Одноголосый закадровый, любительский
Дата мировой премьеры: 20 июля 2012 (Ирландия)
Дата российской премьеры: Неизвестно
Режиссер: Перри Бхэндэл
Актеры: Люк Госс, Каролин Тилетт, Стивен Маркус, Молли Хэрмон, Бранко Томович, Адриан Буше, Рэй Пантаки, Филип Уитчёрч, Дермот Кини, Патрик Листе
Описание фильма:
Не доверяй никому! Ничего не чувствуй! Никогда не проигрывай! Эти три правила помогли Виктору достичь вершины карьеры и стать элитным наемным убийцей. Но однажды те, кто обычно делал заказ ему, получили заказ на него и Виктор вынужден бежать из страны, инсценировав свою смерть. Его путь лежит на родину — в Румынию, где живут люди, которые хотят убить его.

Продолжительность: 01:35:49
Качество видео: BDRip
Видеокодек: MPEG-4 AVC/H.264
Битрейт видео: ~5006 kbps
Размер кадра: 1280 x 696
Аудиокодек: AC3 5.1 / DTS
Аудио 1: Русский, AC3 5.1, 448 kbps, 48 kHz
Аудио 2: Английский, DTS 5.1, 1510 kbps, 48 kHz-Сэмпл: Скачать-

BV

 

-

MediaInfo:

Общее
Уникальный идентификатор : 240201633630504574351232463412088531612 (0xB4B526E242DEB4E58C9CEE03B1ABEA9C)
Полное имя : D:\Films\Interview.With.A.Hitman.2012.720p.BDRip.mkv
Формат : Matroska
Версия формата : Version 2
Размер файла : 4,66 Гбайт
Продолжительность : 1 ч. 35 м.
Общий поток : 6965 Кбит/сек
Дата кодирования : UTC 2012-09-13 01:05:01
Программа кодирования : mkvmerge v5.2.0 ('I can't explain') built on Dec 18 2011 18:12:03
Библиотека кодирования : libebml v1.2.3 + libmatroska v1.3.0
Видео
Идентификатор : 1
Формат : AVC
Формат/Информация : Advanced Video Codec
Профиль формата : [url=mailto:[email protected]][email protected][/url]
Параметр CABAC формата : Да
Параметр ReFrames формата : 5 кадров
Идентификатор кодека : V_MPEG4/ISO/AVC
Продолжительность : 1 ч. 35 м.
Битрейт : 5011 Кбит/сек
Ширина : 1280 пикселей
Высота : 696 пикселей
Соотношение сторон : 1,85:1
Частота кадров : 24,000 кадра/сек
Цветовое пространство : YUV
Субдискретизация насыщенности : 4:2:0
Битовая глубина : 8 бит
Тип развёртки : Прогрессивная
Бит/(Пиксели*Кадры) : 0.234
Размер потока : 3,26 Гбайт (70%)
Библиотека кодирования : x264 core 125 r2208 d9d2288
Настройки программы : cabac=1 / ref=5 / deblock=1:0:0 / analyse=0x3:0x133 / me=umh / subme=7 / psy=1 / psy_rd=1.00:0.00 / mixed_ref=1 / me_range=16 / chroma_me=1 / trellis=1 / 8x8dct=1 / cqm=0 / deadzone=21,11 / fast_pskip=0 / chroma_qp_offset=-2 / threads=12 / lookahead_threads=2 / sliced_threads=0 / nr=0 / decimate=1 / interlaced=0 / bluray_compat=0 / constrained_intra=0 / bframes=3 / b_pyramid=2 / b_adapt=2 / b_bias=0 / direct=3 / weightb=1 / open_gop=0 / weightp=2 / keyint=250 / keyint_min=24 / scenecut=40 / intra_refresh=0 / rc_lookahead=50 / rc=2pass / mbtree=1 / bitrate=5011 / ratetol=1.0 / qcomp=0.60 / qpmin=0 / qpmax=69 / qpstep=4 / cplxblur=20.0 / qblur=0.5 / ip_ratio=1.40 / aq=1:1.00
Язык : English
Default : Да
Forced : Нет
Аудио #1
Идентификатор : 2
Формат : AC-3
Формат/Информация : Audio Coding 3
Расширение режима : CM (complete main)
Параметр Endianness формата : Big
Идентификатор кодека : A_AC3
Продолжительность : 1 ч. 35 м.
Вид битрейта : Постоянный
Битрейт : 448 Кбит/сек
Каналы : 6 каналов
Расположение каналов : Front: L C R, Side: L R, LFE
Частота : 44,1 КГц
Битовая глубина : 16 бит
Метод сжатия : С потерями
Размер потока : 307 Мбайт (6%)
Заголовок : VO
Язык : Russian
Default : Да
Forced : Нет
Аудио #2
Идентификатор : 3
Формат : DTS
Формат/Информация : Digital Theater Systems
Идентификатор кодека : A_DTS
Продолжительность : 1 ч. 35 м.
Вид битрейта : Постоянный
Битрейт : 1510 Кбит/сек
Каналы : 6 каналов
Расположение каналов : Front: L C R, Side: L R, LFE
Частота : 48,0 КГц
Битовая глубина : 24 бит
Метод сжатия : С потерями
Размер потока : 1,01 Гбайт (22%)
Язык : English
Default : Нет
Forced : Нет
-Скриншоты:        
       
-

_________________
Скачал сам, дай скачать другому!!!Не забудь сказать -
Other forum [Profile] [PM]
Similar theme
Forum Topic Author Torrent Replies Last Post
./templates/default/images/folder_dl.gif Техническая и научно-популярная литература В.В.Печеровый | Профилактика и ремонт МФУ и лазерных принтеров Canon и Hewlett Packard (2013) [DJVU] Omen
1 | 0

0 | 866

12

2014-07-22 18:05
Omen Latest
./templates/default/images/folder_dl.gif Техническая и научно-популярная литература Эндрю Блам | Сеть. Как устроен и как работает Интернет (2014) [PDF, DOCX, FB2, EPUB] Omen
0 | 1

0 | 502

10

2015-06-10 12:32
Omen Latest
Display posts from previous:    
Reply to topic

The time now is: Today 21:59

All times are GMT + 3 Hours



You cannot post new topics in this forum
You cannot reply to topics in this forum
You cannot edit your posts in this forum
You cannot delete your posts in this forum
You cannot vote in polls in this forum
You cannot attach files in this forum
You cannot download files in this forum