Today is a free download without charge Download

Обряд / The Rite (Микаэль Хофстрём / Mikael Håfström) [2011, США, Ужасы, триллер, драма, BDRemux 1080p]

Reply to topic
 
Author
Message

}{[email protected]БЬ)Ч ®

Longevity: 8 years 4 months

Posts: 58

Торрент-статистика

Post 07-Jul-2011 10:08

[Quote]

-Обряд / The Rite-Страна: США
Студия: New Line Cinema
Жанр: Ужасы, триллер, драма
Год выпуска: 2011
Продолжительность: 01:53:42-Перевод 1: Профессиональный (многоголосый закадровый)
Перевод 2: Любительский (одноголосый закадровый) ZAMEZ
Перевод 3: Любительский (двухголосый закадровый) сладкая парочка
Cубтитры: русские (2 варианта), английские форсированные, английские полные.
Оригинальная аудиодорожка: английский-Режиссер: Микаэль Хафстрем / Mikael Hafstrom
В ролях: Энтони Хопкинс, Колин О’Донохью, Алиси Брага, Киаран Хиндс, Тоби Джонс, Рутгер Хауэр, Марта Гастини, Мария Грация Кучинотта, Арианна Веронези, Андре Каллиджари-Описание: Фильм рассказывает об американском священнике, который отправляется в Ватикан учиться в школе экзорцизма--Тип релиза: BDRemux
Контейнер: MKV
Видео: 1920х1080 MPEG-4 AVC Video 27657 kbps 1080p / 23.976 fps / 16:9 / High Profile 4.1
Аудио 1: (MVO) Dolby Digital Audio Russian 2.0 / 48 kHz / 192 kbps
Аудио 2: (ZAMEZ) Dolby Digital Audio Russian 5.1 / 48 kHz / 384 kbps
Аудио 3: (DVO) Dolby Digital Audio Russian 5.1 / 48 kHz / 384 kbps
Аудио 4: (Eng) DTS-HD Master Audio English 3619 kbps 5.1 / 48 kHz / 3619 kbps / 24-bit (DTS Core: 5.1 / 48 kHz / 1509 kbps / 24-bit)
Формат субтитров: UTF-8

MI

Код:
General
Complete name                    : X:\  -= Фильмы =-\Обряд (2011. The Rite).mkv
Format                           : Matroska
File size                        : 25.6 GiB
Duration                         : 2h 6mn
Overall bit rate                 : 29.0 Mbps
Encoded date                     : UTC 2011-07-06 21:24:55
Writing application              : mkvmerge v4.0.0 ('The Stars were mine') сборка от Jun  6 2010 16:18:42
Writing library                  : libebml v1.0.0 + libmatroska v1.0.0
Video
ID                               : 1
Format                           : AVC
Format/Info                      : Advanced Video Codec
Format profile                   : [email protected]
Format settings, CABAC           : Yes
Format settings, ReFrames        : 2 frames
Muxing mode                      : Container [email protected]
Codec ID                         : V_MPEG4/ISO/AVC
Duration                         : 2h 6mn
Bit rate mode                    : Variable
Width                            : 1 920 pixels
Height                           : 1 080 pixels
Display aspect ratio             : 16:9
Frame rate                       : 23.976 fps
Color space                      : YUV
Chroma subsampling               : 4:2:0
Bit depth                        : 8 bits
Scan type                        : Progressive
Audio #1
ID                               : 2
Format                           : AC-3
Format/Info                      : Audio Coding 3
Mode extension                   : CM (complete main)
Codec ID                         : A_AC3
Duration                         : 2h 6mn
Bit rate mode                    : Constant
Bit rate                         : 192 Kbps
Channel(s)                       : 2 channels
Channel positions                : Front: L R
Sampling rate                    : 48.0 KHz
Bit depth                        : 16 bits
Video delay                      : 12ms
Stream size                      : 174 MiB (1%)
Title                            : MVO
Language                         : Russian
Audio #2
ID                               : 3
Format                           : AC-3
Format/Info                      : Audio Coding 3
Mode extension                   : CM (complete main)
Codec ID                         : A_AC3
Duration                         : 2h 6mn
Bit rate mode                    : Constant
Bit rate                         : 384 Kbps
Channel(s)                       : 6 channels
Channel positions                : Front: L C R, Side: L R, LFE
Sampling rate                    : 48.0 KHz
Bit depth                        : 16 bits
Stream size                      : 347 MiB (1%)
Title                            : AVO (zamez)
Language                         : Russian
Audio #3
ID                               : 4
Format                           : AC-3
Format/Info                      : Audio Coding 3
Mode extension                   : CM (complete main)
Codec ID                         : A_AC3
Duration                         : 2h 6mn
Bit rate mode                    : Constant
Bit rate                         : 384 Kbps
Channel(s)                       : 6 channels
Channel positions                : Front: L C R, Side: L R, LFE
Sampling rate                    : 48.0 KHz
Bit depth                        : 16 bits
Stream size                      : 347 MiB (1%)
Title                            : DVO
Language                         : Russian
Audio #4
ID                               : 5
Format                           : DTS
Format/Info                      : Digital Theater Systems
Format profile                   : MA
Codec ID                         : A_DTS
Duration                         : 2h 6mn
Bit rate mode                    : Variable
Channel(s)                       : 6 channels
Channel positions                : Front: L C R, Side: L R, LFE
Sampling rate                    : 48.0 KHz
Bit depth                        : 24 bits
Title                            : Original
Language                         : English
Text #1
ID                               : 6
Format                           : UTF-8
Codec ID                         : S_TEXT/UTF8
Codec ID/Info                    : UTF-8 Plain Text
Title                            : Rus 1
Language                         : Russian
Text #2
ID                               : 7
Format                           : UTF-8
Codec ID                         : S_TEXT/UTF8
Codec ID/Info                    : UTF-8 Plain Text
Title                            : Rus 2
Language                         : Russian
Text #3
ID                               : 8
Format                           : UTF-8
Codec ID                         : S_TEXT/UTF8
Codec ID/Info                    : UTF-8 Plain Text
Title                            : forsed
Language                         : English
Text #4
ID                               : 9
Format                           : UTF-8
Codec ID                         : S_TEXT/UTF8
Codec ID/Info                    : UTF-8 Plain Text
Title                            : full
Language                         : English
[/pre]

Скриншоты

     


Last edited by }{[email protected]БЬ)Ч on 2011-07-07 10:26; edited 4 times in total
Other forum [Profile] [PM]

Nugeiro

Gender:

Longevity: 8 years 7 months

Posts: 1981

Location: Украина, Шостка

Торрент-статистика

Post 07-Jul-2011 10:16 (after 8 minutes)

[Quote]

Скриншоты должны быть в одном из тэгов [thumbnails][/thumbnails] [imgs][/imgs] или [lb][/lb]. Но приоритетным является именно [imgs][/imgs]...

_________________
Other forum [Profile] [PM]

}{[email protected]БЬ)Ч ®

Longevity: 8 years 4 months

Posts: 58

Торрент-статистика

Post 07-Jul-2011 10:24 (after 7 minutes)

[Quote]

Oxygenius
все исправил Surprised
Other forum [Profile] [PM]

Nugeiro

Gender:

Longevity: 8 years 7 months

Posts: 1981

Location: Украина, Шостка

Торрент-статистика

Post 07-Jul-2011 10:26 (after 2 minutes)

[Quote]

Спасибо за релиз! По пивасику?

_________________
Other forum [Profile] [PM]
Display posts from previous:    
Reply to topic

The time now is: Today 18:53

All times are GMT + 3 Hours



You cannot post new topics in this forum
You cannot reply to topics in this forum
You cannot edit your posts in this forum
You cannot delete your posts in this forum
You cannot vote in polls in this forum
You cannot attach files in this forum
You cannot download files in this forum