Today is a free download without charge Download

Луна в бутылке / La luna en botella (Грохо / Grojo) [2007, Великобритания, Испания, Комедия, HDTV 1080i] MVO (Селена Интернешнл)

Reply to topic
 
Author
Message

Omen ®

Longevity: 8 years 5 months

Posts: 181087

Торрент-статистика

Post 24-Mar-2013 08:27

[Quote]

Луна в бутылке / La luna en botella
Страна: Великобритания, Испания
Студия: Ikiru Films, Sogecine, Zephyr Films
Жанр: Комедия
Год выпуска: 2007
Продолжительность: 01:30:45
Перевод: Профессиональный (многоголосый закадровый) Селена Интернешнл
Cубтитры: нет
Оригинальная аудиодорожка: нет
Режиссер: Грохо / Grojo
В ролях: Эдуард Сото, Барбара Гоэнага, Марина Херреро, Доминик Пинон, Пеп Жове, Ли Зиммерман, Майкл Дженн, Джоан Дальмау, Мария Елена Флорес, Хавьер Мейя
Описание: Герои фильма день ото дня приходят в одно и то же кафе, здесь они друг с другом знакомятся, пишут книги, разговаривают, поют, танцуют, веселятся и горюют, решают вопросы жизни и смерти, любят друг друга. И все они имеют нечто общее: каждый из них собирает тут силы для воплощения собственной луны в бутылке, то есть мечты.

Тип релиза: HDTV 1080i
Контейнер: TS
Видео: AVC 1920x1080 (16:9) 25.0fps Bit rate 5956Kbps
Аудио: MP2 48.0 KHz 2ch 192 Kbps

MediaInfo

General
ID : C
Complete name : E:\torrent\Луна в бутылке.ts
Format : MPEG-TS
File size : 4.10 GiB
Duration : 1h 30mn
Overall bit rate : 6 469 Kbps
Video
ID : 1602 (0x642)
Menu ID : 602 (0x25A)
Format : AVC
Format/Info : Advanced Video Codec
Format profile : [email protected]
Format settings, CABAC : Yes
Format settings, ReFrames : 3 frames
Duration : 1h 30mn
Bit rate : 5 956 Kbps
Width : 1 920 pixels
Height : 1 080 pixels
Display aspect ratio : 16:9
Frame rate : 25.000 fps
Standard : Component
Color space : YUV
Chroma subsampling : 4:2:0
Bit depth : 8 bits
Scan type : Interlaced
Scan order : Top Field First
Bits/(Pixel*Frame) : 0.115
Stream size : 3.78 GiB (92%)
Color primaries : BT.709-5, BT.1361, IEC 61966-2-4, SMPTE RP177
Transfer characteristics : BT.709-5, BT.1361
Matrix coefficients : BT.709-5, BT.1361, IEC 61966-2-4 709, SMPTE RP177
Audio
ID : 2602 (0xA2A)
Menu ID : 602 (0x25A)
Format : MPEG Audio
Format version : Version 1
Format profile : Layer 2
Duration : 1h 30mn
Bit rate mode : Constant
Bit rate : 192 Kbps
Channel(s) : 2 channels
Sampling rate : 48.0 KHz
Video delay : 92ms
Stream size : 125 MiB (3%)
Language : Russian

Скриншоты

Скриншот с названием фильма

Other forum [Profile] [PM]
Display posts from previous:    
Reply to topic

The time now is: Today 09:00

All times are GMT + 3 Hours



You cannot post new topics in this forum
You cannot reply to topics in this forum
You cannot edit your posts in this forum
You cannot delete your posts in this forum
You cannot vote in polls in this forum
You cannot attach files in this forum
You cannot download files in this forum