Сегодня идет свободное скачивание без начисления Download

Много шума из ничего (1973) DVDRip

Ответить на тему
 
Автор
Сообщение

UndegraundMen ®

Стаж: 5 лет 9 месяцев

Сообщений: 25860

Торрент-статистика

Пост 24-Мар-2013 01:09

[Цитировать]

Много шума из ничего (1973) DVDRip- Русское название: Много шума из ничего
Год выпуска: 1973
Жанр: Комедия
Описание фильма:
По одноименной комедии Уильяма Шекспира. Италия, эпоха Возрождения. Молодой знатный флорентиец страстно влюблен в дочь губернатора - чистую, юную Геро, но интриги одного из придворных мешают молодым людям соединиться. Однако справедливость и добро все же восторжествуют: клеветник будет разоблачен, а непорочная Геро возвращена счастливому жениху...
Режиссер: Самсон Самсонов
Актеры: Константин Райкин, Алексей Добронравов, Борис Иванов, Галина Логинова, Владимир Коренев, Владимир Осенев, Татьяна Веденеева, Виктор Демерташ, Нина Магер
Продолжительность: 01:16:37

Видеокодек: Xvid
Битрейт видео: ~1818 kbps
Размер кадра: 592x320
Качество видео: DVDRip
Аудиокодек: AC3 2.0
Битрейт аудио: 192.00 kbps

MI

Общее
Полное имя : C:\Users\1\Downloads\Mnogo.shuma.iz.nichego.avi
Формат : AVI
Формат/Информация : Audio Video Interleave
Размер файла : 746 Мбайт
Продолжительность : 1 ч. 16 м.
Общий поток : 1361 Кбит/сек
Программа кодирования : VirtualDubMod 1.5.10.3 | www.virtualdub-fr.org || (build 2550/release)
Библиотека кодирования : VirtualDubMod build 2550/release
Видео
Идентификатор : 0
Формат : MPEG-4 Visual
Профиль формата : Advanced [email protected]
Параметр BVOP формата : 2
Параметр QPel формата : Нет
Параметр GMC формата : Без точки перехода
Параметр матрицы формата : Выборочная
Идентификатор кодека : XVID
Идентификатор кодека/Подсказка : XviD
Продолжительность : 1 ч. 16 м.
Битрейт : 1223 Кбит/сек
Ширина : 592 пикселя
Высота : 320 пикселей
Соотношение сторон : 1,850
Частота кадров : 25,000 кадров/сек
Цветовое пространство : YUV
Субдискретизация насыщенности : 4:2:0
Битовая глубина : 8 бит
Тип развёртки : Прогрессивная
Метод сжатия : С потерями
Бит/(Пиксели*Кадры) : 0.258
Размер потока : 670 Мбайт (90%)
Библиотека кодирования : XviD 65
Аудио
Идентификатор : 1
Формат : MPEG Audio
Версия формата : Version 1
Профиль формата : Layer 3
Идентификатор кодека : 55
Идентификатор кодека/Подсказка : MP3
Продолжительность : 1 ч. 16 м.
Вид битрейта : Постоянный
Битрейт : 128 Кбит/сек
Каналы : 2 канала
Частота : 48,0 КГц
Метод сжатия : С потерями
Размер потока : 70,1 Мбайт (9%)
Выравнивание : Соединение по промежуткам
Продолжительность промежутка : 40 мс. (1,00 видеокадр)
Время предзагрузки промежутка : 504 мс.
Библиотека кодирования : LAME3.99r
Настройки программы : -m s -V 4 -q 2 -lowpass 17 -b 128
Скриншоты:
       
Вне форума [Профиль] [ЛС]
Похожие темы
Форум Тема Автор Торрент Отв. Посл. сообщение
./templates/default/images/folder_dl.gif Архив Moon + Reader Pro v4.0 [Ru/Multi] - многофункциональный ридер электронных книг под Android XP1971
1 | 0

0 | 999

12

2016-08-21 10:43
XP1971 Последнее
./templates/default/images/folder_dl.gif Компьютерная литература Арнольд Роббинс | Bash. Карманный справочник системного администратора [2-е издание] (2017) [PDF] XP1971
1 | 0

0 | 460

9

2018-07-04 13:52
XP1971 Последнее
Показать сообщения:    
Ответить на тему

Текущее время: Сегодня 15:49

Часовой пояс: GMT + 3



Вы не можете начинать темы
Вы не можете отвечать на сообщения
Вы не можете редактировать свои сообщения
Вы не можете удалять свои сообщения
Вы не можете голосовать в опросах
Вы не можете прикреплять файлы к сообщениям
Вы не можете скачивать файлы