Today is a free download without charge Download

Много шума из ничего (1973) DVDRip [H.264]

Reply to topic
 
Author
Message

UndegraundMen ®

Longevity: 6 years 2 months

Posts: 23038

Торрент-статистика

Post 24-Mar-2013 01:09

[Quote]

Много шума из ничего (1973) DVDRip- Русское название: Много шума из ничего
Год выпуска: 1973
Жанр: Комедия
Описание фильма:
По одноименной комедии Уильяма Шекспира. Италия, эпоха Возрождения. Молодой знатный флорентиец страстно влюблен в дочь губернатора - чистую, юную Геро, но интриги одного из придворных мешают молодым людям соединиться. Однако справедливость и добро все же восторжествуют: клеветник будет разоблачен, а непорочная Геро возвращена счастливому жениху...
Режиссер: Самсон Самсонов
Актеры: Константин Райкин, Алексей Добронравов, Борис Иванов, Галина Логинова, Владимир Коренев, Владимир Осенев, Татьяна Веденеева, Виктор Демерташ, Нина Магер
Продолжительность: 01:16:36

Видеокодек: MPEG4/ISO/AVC
Формат: mkv
Битрейт видео: 2500 kbps
Размер кадра: [email protected]
Качество видео: DVDRip
Аудиокодек: AC3 2.0
Битрейт аудио: 192.00 kbps

MI

Общее
Уникальный идентификатор : 224835247895247232543047828722863539613 (0xA925B192E23E6E9CB933A9315173859D)
Полное имя : C:\Users\1\Downloads\Много шума из ничего.mkv
Формат : Matroska
Версия формата : Version 2
Размер файла : 1,44 Гбайт
Продолжительность : 1 ч. 16 м.
Общий поток : 2694 Кбит/сек
Дата кодирования : UTC 2012-08-09 16:27:59
Программа кодирования : mkvmerge v5.7.0 ('The Whirlwind') built on Jul 8 2012 20:08:51
Библиотека кодирования : libebml v1.2.3 + libmatroska v1.3.0
Видео
Идентификатор : 1
Формат : AVC
Формат/Информация : Advanced Video Codec
Профиль формата : [url=mailto:[email protected]][email protected][/url]
Параметр CABAC формата : Да
Параметр ReFrames формата : 16 кадров
Идентификатор кодека : V_MPEG4/ISO/AVC
Продолжительность : 1 ч. 16 м.
Битрейт : 2500 Кбит/сек
Ширина : 700 пикселей
Высота : 352 пикселя
Соотношение сторон : 2,35:1
Соотношение сторон в оригинале : 2,35:1
Частота кадров : 25,000 кадров/сек
Цветовое пространство : YUV
Субдискретизация насыщенности : 4:2:0
Битовая глубина : 8 бит
Тип развёртки : Прогрессивная
Бит/(Пиксели*Кадры) : 0.406
Размер потока : 1,31 Гбайт (91%)
Заголовок : Много шума из ничего.1973
Библиотека кодирования : x264 core 125 r2200 999b753
Настройки программы : cabac=1 / ref=16 / deblock=1:-1:-1 / analyse=0x3:0x133 / me=umh / subme=11 / psy=1 / psy_rd=1.00:0.15 / mixed_ref=1 / me_range=48 / chroma_me=1 / trellis=2 / 8x8dct=1 / cqm=0 / deadzone=21,11 / fast_pskip=0 / chroma_qp_offset=-3 / threads=12 / lookahead_threads=2 / sliced_threads=0 / nr=0 / decimate=0 / interlaced=0 / bluray_compat=0 / constrained_intra=0 / bframes=12 / b_pyramid=2 / b_adapt=2 / b_bias=0 / direct=3 / weightb=1 / open_gop=0 / weightp=2 / keyint=250 / keyint_min=25 / scenecut=40 / intra_refresh=0 / rc_lookahead=60 / rc=2pass / mbtree=1 / bitrate=2500 / ratetol=1.0 / qcomp=0.60 / qpmin=0 / qpmax=69 / qpstep=4 / cplxblur=20.0 / qblur=0.5 / vbv_maxrate=50000 / vbv_bufsize=62500 / nal_hrd=none / ip_ratio=1.40 / aq=1:1.10
Язык : Russian
Default : Да
Forced : Нет
Основные цвета : BT.470-6 System B, BT.470-6 System G, BT.601-6 625, BT.1358 625, BT.1700 625 PAL, BT.1700 625 SECAM
Характеристики трансфера : BT.470-6 System B, BT.470-6 System G
Коэффициенты матрицы : BT.470-6 System B, BT.470-6 System G, BT.601-6 625, BT.1358 625, BT.1700 625 PAL, BT.1700 625 SECAM, IEC 61966-2-4 601
Аудио
Идентификатор : 2
Формат : AC-3
Формат/Информация : Audio Coding 3
Расширение режима : CM (complete main)
Идентификатор кодека : A_AC3
Продолжительность : 1 ч. 16 м.
Вид битрейта : Постоянный
Битрейт : 192 Кбит/сек
Каналы : 2 канала
Расположение каналов : Front: L R
Частота : 48,0 КГц
Битовая глубина : 16 бит
Метод сжатия : С потерями
Размер потока : 105 Мбайт (7%)
Заголовок : Оригинал AC-3; 16 bit 48 Khz; 2ch 192 Kbps; CBR
Язык : Russian
Default : Да
Forced : Нет
Скриншоты:
         
       
Other forum [Profile] [PM]
Display posts from previous:    
Reply to topic

The time now is: Today 05:31

All times are GMT + 3 Hours



You cannot post new topics in this forum
You cannot reply to topics in this forum
You cannot edit your posts in this forum
You cannot delete your posts in this forum
You cannot vote in polls in this forum
You cannot attach files in this forum
You cannot download files in this forum