Today is a free download without charge Download

Агент Хамилтон: Похищенная / Hamilton: Men inte om det galler din dotter ( Тобиаш Фальк ) (2012, Боевик, Триллер, Драма ) BDRip [720p]

Reply to topic
 
Author
Message

Витек1 ®

Gender:

Longevity: 8 years 3 months

Posts: 451

Location: Житомир

Торрент-статистика

Post 23-Mar-2013 21:57

[Quote]

Агент Хамилтон: Похищенная / Hamilton: Men inte om det galler din dotter - Русское название: Агент Хамилтон: Похищенная
Оригинальное название: Hamilton: Men inte om det galler din dotter
Год выпуска: 2012
Производство: Швеция
Жанр: Боевик, Триллер, Драма
Перевод: Одноголосый закадровый, любительский [den904]
Язык субтитров: Русский
Вид субтитров: Вшитые отключаемые
Дата мировой премьеры: 7 сентября 2012
Режиссер: Тобиаш Фальк
Продюсер: Жан Марнелл, Джессика Эрикстам, Маттиас Йоханссон
Актеры: Микаэл Персбрандт, Стивен Вэддингтон, Джон Лайт, Frida Hallgren, Дэвид Ринтул, Кэл Макэнинк, Питер Эггерс, Милинд Соман, Найджел Уитми, Саба Мубарак
Описание фильма:
У знакомой Хамилтона похищают дочь, после того как она выступила перед журналистами с критикой одной мусульманской группировки. Но это не простое похищение, оно несёт как политический, так и личный характер. С помощью отца девочки Хамильтон решает отправится на поиски пропавшей девочки и брутально отомстить похитителям…- -Продолжительность: 01:29:47
Качество видео: ВDRip
Видеокодек: MPEG-4 AVC/H.264
Битрейт видео: ~5450 Kbit/s
Размер кадра: 1280x544
Аудио 1: Russian: DTS, 755 kb/s (6 ch)
Аудио 2: Swedish: DTS, 755 kb/s (6 ch)-

MI

Общее
Уникальный идентификатор : 187352553265463049209214642668794307397 (0x8CF2CA0C3B3B786D9193AA3097646345)
Полное имя : E:\Загрузка\Gamiljton.2.2012.L1.BDRip.720p.mkv
Формат : Matroska
Версия формата : Version 2
Размер файла : 4,36 Гбайт
Продолжительность : 1 ч. 29 м.
Общий поток : 6956 Кбит/сек
Название фильма : Hamilton 2: Unless Its About Your Daughter (2012) |
Дата кодирования : UTC 2013-01-10 00:24:25
Программа кодирования : mkvmerge v5.5.0 ('Healer') built on Apr 6 2012 21:43:24
Библиотека кодирования : libebml v1.2.3 + libmatroska v1.3.0
Видео
Идентификатор : 1
Формат : AVC
Формат/Информация : Advanced Video Codec
Профиль формата : [url=mailto:[email protected]][email protected][/url]
Параметр CABAC формата : Да
Параметр ReFrames формата : 12 кадров
Идентификатор кодека : V_MPEG4/ISO/AVC
Продолжительность : 1 ч. 29 м.
Битрейт : 5450 Кбит/сек
Ширина : 1280 пикселей
Высота : 544 пикселя
Соотношение сторон : 2,35:1
Частота кадров : 24,000 кадра/сек
Цветовое пространство : YUV
Субдискретизация насыщенности : 4:2:0
Битовая глубина : 8 бит
Тип развёртки : Прогрессивная
Бит/(Пиксели*Кадры) : 0.326
Размер потока : 3,33 Гбайт (76%)
Заголовок : Hamilton 2: Unless Its About Your Daughter (2012)
Библиотека кодирования : x264 core 129 r2230 1cffe9f
Настройки программы : cabac=1 / ref=12 / deblock=1:-3:-3 / analyse=0x3:0x113 / me=umh / subme=10 / psy=1 / psy_rd=1.00:0.15 / mixed_ref=1 / me_range=32 / chroma_me=1 / trellis=2 / 8x8dct=1 / cqm=0 / deadzone=21,11 / fast_pskip=1 / chroma_qp_offset=-3 / threads=8 / lookahead_threads=1 / sliced_threads=0 / nr=0 / decimate=0 / interlaced=0 / bluray_compat=0 / constrained_intra=0 / bframes=12 / b_pyramid=2 / b_adapt=2 / b_bias=0 / direct=3 / weightb=1 / open_gop=0 / weightp=2 / keyint=250 / keyint_min=24 / scenecut=40 / intra_refresh=0 / rc_lookahead=40 / rc=2pass / mbtree=0 / bitrate=5450 / ratetol=1.0 / qcomp=0.70 / qpmin=0 / qpmax=69 / qpstep=4 / cplxblur=20.0 / qblur=0.5 / vbv_maxrate=50000 / vbv_bufsize=62500 / nal_hrd=none / ip_ratio=1.40 / pb_ratio=1.30 / aq=1:1.00
Язык : Swedish
Default : Да
Forced : Нет
Основные цвета : BT.709-5, BT.1361, IEC 61966-2-4, SMPTE RP177
Характеристики трансфера : BT.709-5, BT.1361
Коэффициенты матрицы : BT.709-5, BT.1361, IEC 61966-2-4 709, SMPTE RP177
Аудио #1
Идентификатор : 2
Формат : DTS
Формат/Информация : Digital Theater Systems
Идентификатор кодека : A_DTS
Продолжительность : 1 ч. 29 м.
Вид битрейта : Постоянный
Битрейт : 755 Кбит/сек
Каналы : 6 каналов
Расположение каналов : Front: L C R, Side: L R, LFE
Частота : 48,0 КГц
Битовая глубина : 24 бит
Метод сжатия : С потерями
Размер потока : 485 Мбайт (11%)
Заголовок : [den904] DTS, 6 ch, 755 kbps
Язык : Russian
Default : Да
Forced : Нет
Аудио #2
Идентификатор : 3
Формат : DTS
Формат/Информация : Digital Theater Systems
Идентификатор кодека : A_DTS
Продолжительность : 1 ч. 29 м.
Вид битрейта : Постоянный
Битрейт : 755 Кбит/сек
Каналы : 6 каналов
Расположение каналов : Front: L C R, Side: L R, LFE
Частота : 48,0 КГц
Битовая глубина : 24 бит
Метод сжатия : С потерями
Размер потока : 485 Мбайт (11%)
Заголовок : [Original] DTS, 6 ch, 755 kbps
Язык : Swedish
Default : Нет
Forced : Нет
Текст
Идентификатор : 4
Формат : UTF-8
Идентификатор кодека : S_TEXT/UTF8
Идентификатор кодека/Информация : UTF-8 Plain Text
Заголовок : [Skyworker]
Язык : Russian
Default : Нет
Forced : Нет
Меню
00:00:00.000 : :Chapter 1
00:08:00.000 : :Chapter 2
00:16:00.000 : :Chapter 3
00:24:00.000 : :Chapter 4
00:32:00.000 : :Chapter 5
00:40:00.000 : :Chapter 6
00:48:00.000 : :Chapter 7
00:56:00.000 : :Chapter 8
01:04:00.000 : :Chapter 9
01:12:00.000 : :Chapter 10
01:20:00.000 : :Chapter 11
01:28:00.000 : :Chapter 12
-Cкриншоты из фильма:
         
-Приятного просмотра
и не забываем говорить СПАСИБО...
-

_________________
Скачал сам, дай скачать другому!!!Не забудь сказать -
Other forum [Profile] [PM]
Similar theme
Forum Topic Author Torrent Replies Last Post
./templates/default/images/folder_dl.gif Фильмы 2011-2020 Двойной агент / The Double (Майкл Брандт) [2011 г., триллер, драма, криминал, детектив, HDRip] sassad
1 | 0

0 | 1057

12

2012-01-16 16:25
sassad Latest
Display posts from previous:    
Reply to topic

The time now is: Today 11:55

All times are GMT + 3 Hours



You cannot post new topics in this forum
You cannot reply to topics in this forum
You cannot edit your posts in this forum
You cannot delete your posts in this forum
You cannot vote in polls in this forum
You cannot attach files in this forum
You cannot download files in this forum