Сегодня идет свободное скачивание без начисления Download

Петербургская ночь (1934) DVDRip

Ответить на тему
 
Автор
Сообщение

UndegraundMen ®

Стаж: 5 лет 7 месяцев

Сообщений: 25860

Торрент-статистика

Пост 23-Мар-2013 21:23

[Цитировать]

Петербургская ночь (1934) DVDRip- Русское название: Петербургская ночь
Год выпуска: 1934
Жанр: Драма
Описание фильма:
Фильм снят по мотивам произведений Ф. М. Достоевского «Неточка Незванова» и «Белые ночи». Крепостной Егор Ефимов, талантливый скрипач, мечтает о настоящем искусстве. Отпущенный на волю помещиком, он отправляется в столицу. Но холодный, чиновный Петербург быстро разрушает иллюзии.
Кубок МКФ в Венеции-34 за программу, особо упомянута «Петербургская ночь», «в которой техника съемки, совершенно лишенная каких-либо ухищрений и нарочитостей, сочетается с прекрасным и естественным воплощением человеческих образов...».
Картина вошла в «шестерку» лучших фильмов фестиваля.

Режиссер: Григорий Рошаль, Вера Строева
Актеры: Борис Добронравов, Ксения Тарасова, Лев Фенин, Анатолий Горюнов, И.Доронин, Иван Кудрявцев, Татьяна Барышева, Любовь Орлова

Продолжительность: 01:38:40

Примечание: Фильм не реставрировался есть проблемы со звуком (посторонние шумы).
Видеокодек: DivX 5
Битрейт видео: ~1584 kbps
Размер кадра: 640x496
Качество видео: DVDRip
Аудиокодек: MP3
Битрейт аудио: 128Kbps, 2ch

MI

Общее
Полное имя : C:\Users\1\Downloads\peterburgskaja.noch.avi
Формат : AVI
Формат/Информация : Audio Video Interleave
Размер файла : 1,19 Гбайт
Продолжительность : 1 ч. 38 м.
Общий поток : 1722 Кбит/сек
Программа кодирования : VirtualDubMod 1.5.10.1 (build 2439/release)
Библиотека кодирования : VirtualDubMod build 2439/release
Видео
Идентификатор : 0
Формат : MPEG-4 Visual
Параметр BVOP формата : 2
Параметр QPel формата : Нет
Параметр GMC формата : 2 точки перехода
Параметр матрицы формата : Default (H.263)
Идентификатор кодека : DX50
Идентификатор кодека/Подсказка : DivX 5
Продолжительность : 1 ч. 38 м.
Битрейт : 1584 Кбит/сек
Ширина : 640 пикселей
Высота : 496 пикселей
Соотношение сторон : 1,290
Частота кадров : 25,000 кадров/сек
Цветовое пространство : YUV
Субдискретизация насыщенности : 4:2:0
Битовая глубина : 8 бит
Тип развёртки : Прогрессивная
Метод сжатия : С потерями
Бит/(Пиксели*Кадры) : 0.200
Размер потока : 1,09 Гбайт (92%)
Библиотека кодирования : DivX 1328m
Аудио
Идентификатор : 1
Формат : MPEG Audio
Версия формата : Version 1
Профиль формата : Layer 3
Режим : Joint stereo
Расширение режима : MS Stereo
Идентификатор кодека : 55
Идентификатор кодека/Подсказка : MP3
Продолжительность : 1 ч. 38 м.
Вид битрейта : Постоянный
Битрейт : 128 Кбит/сек
Каналы : 2 канала
Частота : 48,0 КГц
Метод сжатия : С потерями
Размер потока : 90,3 Мбайт (7%)
Выравнивание : Соединение по промежуткам
Продолжительность промежутка : 40 мс. (1,00 видеокадр)
Время предзагрузки промежутка : 504 мс.
Скриншоты:
         
         
Вне форума [Профиль] [ЛС]
Показать сообщения:    
Ответить на тему

Текущее время: Сегодня 19:56

Часовой пояс: GMT + 3



Вы не можете начинать темы
Вы не можете отвечать на сообщения
Вы не можете редактировать свои сообщения
Вы не можете удалять свои сообщения
Вы не можете голосовать в опросах
Вы не можете прикреплять файлы к сообщениям
Вы не можете скачивать файлы