Today is a free download without charge Download

Королева бандитов ( Валерий Девятилов ) (серии 1-16 из 16) (2013, Мелодрама ) DVB

Reply to topic
 
Author
Message

Витек1 ®

Gender:

Longevity: 8 years 11 months

Posts: 451

Location: Житомир

Торрент-статистика

Post 23-Mar-2013 21:10

[Quote]

Королева бандитов - Русское название: Королева бандитов
Производство: Кинокомпания "Русское", ЗАО "Студия Паламеда"
Год выпуска: 2013
Жанр: Мелодрама
Режиссер: Валерий Девятилов
Актеры: Екатерина Кузнецова, Владимир Жеребцов, Леонид Громов, Александр Самойленко, Екатерина Васильева, Павел Кузьмин, Натали Старынкевич, Наталья Хорохорина, Борис Галкин, Николай Мачульский, Ян Цапник, Петр Томашевский, Алексей Кирсанов, Олег Алмазов, Егор Лучишкин, Татьяна Бибикова, Юрий Беркун, Никита Кудрявцев, Алексей Медведев, Антонина Комиссарова, Сергей Плаксин, Виктория Адельфина, Игорь Фурманюк, Анжелика Вольская, Елена Грехова, Юрис Лауциньш, Олег Каменщиков, Денис Варенов, Олег Новиков, Евгений Рябов
Описание фильма:
Полина, красивая и чистая сельская девушка, ждет из армии своего любящего жениха Сергея. К несчастью, Сергей не единственный, кому нужна Полина — хозяин рынка, непререкаемый авторитет Буров, тоже положил глаз на цветущую соседку.
Вероятно, эта история могла бы разрешиться, если бы матери Полины не потребовалась срочная дорогостоящая операция. Оказавшись перед тяжелым выбором, героиня выходит замуж за Бурова, который ей ненавистен…

Дата российской премьеры: 18.03.2013
Продолжительность: ~ 00:45:00
Качество видео: DVBRip
Видеокодек: MPEG-2
Битрейт видео: ~5300 Kbps
Размер кадра: 720x576
Аудиокодек: MP2
Битрейт аудио: 2 ch, 256 Kbps

MediaInfo:

[Общее
Полное имя : E:\DOWNLOADS\Королева бандитов (2013) DVB\Королева бандитов - 1 серия.mpg
Формат : MPEG-PS
Размер файла : 1,81 Гбайт
Продолжительность : 45 м.
Режим общего битрейта : Переменный
Общий поток : 5720 Кбит/сек
Библиотека кодирования : (c) 1998-2012 Womble Multimedia, Inc. / MPEG Video Wizard DVD 5.0.1.100 (03/2011) / Sep 7 2012
Видео
Идентификатор : 224 (0xE0)
Формат : MPEG Video
Версия формата : Version 2
Профиль формата : [email protected]
Параметр BVOP формата : Да
Параметр матрицы формата : Выборочная
Параметр GOP формата : M=3, N=15
Продолжительность : 45 м.
Вид битрейта : Переменный
Битрейт : 5350 Кбит/сек
Максимальный битрейт : 15,0 Мбит/сек
Ширина : 720 пикселей
Высота : 576 пикселей
Соотношение сторон : 4:3
Частота кадров : 25,000 кадров/сек
Стандарт вещания : PAL
Цветовое пространство : YUV
Субдискретизация насыщенности : 4:2:0
Битовая глубина : 8 бит
Тип развёртки : Чересстрочная
Порядок развёртки : Верхнее поле первое
Метод сжатия : С потерями
Бит/(Пиксели*Кадры) : 0.516
TimeCode_FirstFrame : 00:00:00:00
TimeCode_Source : Group of pictures header
Размер потока : 1,69 Гбайт (94%)
Библиотека кодирования : (c) 1998-2012 Womble Multimedia, Inc. / MPEG Video Wizard DVD 5.0.1.100 (03/2011) / Sep 7 2012
Аудио
Идентификатор : 192 (0xC0)
Формат : MPEG Audio
Версия формата : Version 1
Профиль формата : Layer 2
Продолжительность : 45 м.
Вид битрейта : Постоянный
Битрейт : 256 Кбит/сек
Каналы : 2 канала
Частота : 48,0 КГц
Метод сжатия : С потерями
Задержка видео : -80 мс.
Размер потока : 82,8 Мбайт (4%)

Описание обновления торрента

Внимание! Раздача ведётся путём добавления новых серий; при каждом добавлении создётся новый торрент. Чтобы начать докачку новой серии, пользователям необходимо сделать следующее:
1. Остановить скачивание.
2. Удалить старый торрент у себя из клиента (старые серии удалять не надо).
3. Скачать новый торрент и запустить его у себя в клиенте вместо старого, при этом указать клиенту путь в старую папку куда и должно происходить скачивание новых серий.
Ваш клиент при этом должен произвести хеширование (проверку) старой папки (если не производит сам - помогите ему сделать это), и будет докачивать только те серии которых у вас ещё нет. Старые серии при этом не удаляются, а продолжают раздаваться!
Eсли вы уже удалили старые серии, то предотвратить повторную закачку старых серий можно, отжав галочку в соответсвующих местах при запуске нового торрента. По возможности, желательно не удалять старые серии как можно дольше чтобы релизёр не столько продолжал раздавать старые серии, а смог сконцентрироваться на новых.
Скриншоты:
           

_________________
Скачал сам, дай скачать другому!!!Не забудь сказать -
Other forum [Profile] [PM]
Display posts from previous:    
Reply to topic

The time now is: Today 23:36

All times are GMT + 3 Hours



You cannot post new topics in this forum
You cannot reply to topics in this forum
You cannot edit your posts in this forum
You cannot delete your posts in this forum
You cannot vote in polls in this forum
You cannot attach files in this forum
You cannot download files in this forum