Today is a free download without charge Download

Виталька / Віталька (Сезон 2, серии 41-45) (2013) WEBRip 1080p (UKR) (обновляемая)

Reply to topic
 
Author
Message

UndegraundMen ®

Longevity: 8 years 9 months

Posts: 25145

Торрент-статистика

Post 23-Mar-2013 17:33

[Quote]

Виталька / Віталька (Сезон 2, серии 41-45) (2013) WEBRip 1080p (UKR) (обновляемая)- Русское название: Виталька
Оригинальное название: Віталька
Год выпуска: 2013
Жанр: Комедия
Язык: украинский (вперемешку с русским)
Режиссер: Иван Ясной, Дмитрий Карпенко
Актеры: Гарик Бирча, Анна Лев, Вячеслав Комаров, Олеся Чечельницкая
Описание фильма:
Сериал описывает историю молодого парня Виталия, у которого за невзрачной внешностью скрывается мощное либидо. Он способен понравиться любой красавице, но с ней сначала необходимо познакомиться. Герой живет с мамой, Мариной Францевной, которая видит в тридцатилетнем мужчине маленького карапуза, требующего заботы и опеки. А Виталька мечтает о реальных женщинах, красивых и влюбленных в него, но невзрачная внешность героя не дает ему шанса раскрыться перед красавицами…

Продолжительность: ~ 00:16:00
Качество видео: WEBRip 1080p
Видеокодек: AVC/H.264
Битрейт видео: ~4000 кбит/с
Размер кадра: 1920x1080
Аудиокодек: AAC
Битрейт аудио: 2 ch, 192 кбит/с

MediaInfo:

Код:
Общее
Полное имя : G:\DOWNLOADS\Виталька (2013) WEBRip 1080p\Виталька - 41 серия. Поезд.mp4
Формат : MPEG-4
Профиль формата : Base Media / Version 2
Идентификатор кодека : mp42
Размер файла : 477 Мбайт
Продолжительность : 16 м.
Режим общего битрейта : Переменный
Общий поток : 4019 Кбит/сек
Дата кодирования : UTC 2013-03-17 17:27:26
Дата пометки : UTC 2013-03-17 17:27:26
gsst : 0
gstd : 994788
gssd : B4A7D6364HH1363954160902693
gshh : r13---sn-4g57kn7z.c.youtube.com
Видео
Идентификатор : 1
Формат : AVC
Формат/Информация : Advanced Video Codec
Профиль формата : [url=mailto:[email protected]][email protected][/url]
Параметр CABAC формата : Да
Параметр ReFrames формата : 1 кадр
Идентификатор кодека : avc1
Идентификатор кодека/Информация : Advanced Video Coding
Продолжительность : 16 м.
Битрейт : 3824 Кбит/сек
Максимальный битрейт : 7772 Кбит/сек
Ширина : 1920 пикселей
Высота : 1080 пикселей
Соотношение сторон : 16:9
Режим частоты кадров : Постоянный
Частота кадров : 25,000 кадров/сек
Цветовое пространство : YUV
Субдискретизация насыщенности : 4:2:0
Битовая глубина : 8 бит
Тип развёртки : Прогрессивная
Бит/(Пиксели*Кадры) : 0.074
Размер потока : 453 Мбайт (95%)
Дата пометки : UTC 2013-03-17 17:28:36
Аудио
Идентификатор : 2
Формат : AAC
Формат/Информация : Advanced Audio Codec
Профиль формата : LC
Идентификатор кодека : 40
Продолжительность : 16 м.
Вид битрейта : Переменный
Битрейт : 192 Кбит/сек
Максимальный битрейт : 201 Кбит/сек
Каналы : 2 канала
Расположение каналов : Front: L R
Частота : 44,1 КГц
Метод сжатия : С потерями
Размер потока : 22,8 Мбайт (5%)
Заголовок : IsoMedia File Produced by Google, 5-11-2011
Дата кодирования : UTC 2013-03-17 17:28:24
Дата пометки : UTC 2013-03-17 17:28:36

Описание обновления торрента

Внимание! Раздача ведётся путём добавления новых серий; при каждом добавлении создётся новый торрент. Чтобы начать докачку новой серии, пользователям необходимо сделать следующее:
1. Остановить скачивание.
2. Удалить старый торрент у себя из клиента (старые серии удалять не надо).
3. Скачать новый торрент и запустить его у себя в клиенте вместо старого, при этом указать клиенту путь в старую папку куда и должно происходить скачивание новых серий.
Ваш клиент при этом должен произвести хеширование (проверку) старой папки (если не производит сам - помогите ему сделать это), и будет докачивать только те серии которых у вас ещё нет. Старые серии при этом не удаляются, а продолжают раздаваться!
Eсли вы уже удалили старые серии, то предотвратить повторную закачку старых серий можно, отжав галочку в соответсвующих местах при запуске нового торрента. По возможности, желательно не удалять старые серии как можно дольше чтобы релизёр не столько продолжал раздавать старые серии, а смог сконцентрироваться на новых.
Скриншоты:
Все раздачи сериала «Виталька / Віталька»
[url=/forum/viewtopic.php?t=626782]21-40 серии находятся здесь[/url]
Время раздачи: c 10.00 до 20.00
Other forum [Profile] [PM]
Display posts from previous:    
Reply to topic

The time now is: Today 06:17

All times are GMT + 3 Hours



You cannot post new topics in this forum
You cannot reply to topics in this forum
You cannot edit your posts in this forum
You cannot delete your posts in this forum
You cannot vote in polls in this forum
You cannot attach files in this forum
You cannot download files in this forum