Today is a free download without charge Download

Убить Змея (2007) DVDRip [1-8]

Reply to topic
 
Author
Message

UndegraundMen ®

Longevity: 8 years 9 months

Posts: 25145

Торрент-статистика

Post 23-Mar-2013 17:33

[Quote]

Убить Змея (2007) DVDRip [8]- Русское название: Убить Змея
Год выпуска: 2007
Жанр: Фантастика, Боевик, Драма

Дата выхода DVD/Blu-Ray релиза: 13 ноября 2007, «Первая Видеокомпания»
Режиссер: Владимир Попков
Актеры: Валерий Гаркалин, Ада Роговцева, Евгений Пронин, Юлия Майборода, Андрей Кириллов (II), Наталия Курдюбова, Юрий Беляев, Анна-Мария Даниленко, Дмитрий Лаленков, Алексей Колган, Альберт Филозов, Александр Яковлев, Александр Феклистов, Михаил Жигалов, Татьяна Абрамова, Сергей Апрельский, Ирина Бродская, Михаил Вандзуми, Олеся Власова, Людмила Дементьева, Евгений Доронин, Елена Еременко, Людмила Игнатенко, Олесь Кацион, Виталий Линецкий, Владимир Мартынов (II), Юрий Молчановский, Армандс Нейландс-Яунземс, Алексей Петрожицкий, Мария Ткаченко
Описание фильма:
Они - воины двух издревле противостоящих друг другу кланов. Веками Мангусты, воины Света, открыто выходят на бой с силами Мрака, и не приемлют в борьбе со Змеями ни хитростей, ни коварства. И столько же Змеи, адепты Тьмы, таятся, и наносят защитникам Света исподтишка удар за ударом. Судьбу этого векового противостояния решит последний из Мангустов - преподаватель французского языка в одной из московских школ Глеб. Не воин даже, а ученик, еще не знающий, что Война только начинается. Замешаны в ней директор школы и ученики, шотландский барон Мак-Грегор и генерал ФСБ Рюмин, а также многие другие...
Продолжительность: 8x~00:47
Качество видео: DVDRip
Видеокодек: Xvid
Битрейт видео: ~1431 kbps avg
Размер кадра: 704x528
Аудиокодек: MP3
Битрейт аудио: ~128.00 kbps avg

MediaInfo

Общее
Полное имя : D:\фильмы\Ubit.Zmeja.(1-8.serii.iz.8).2007.XviD.DVDRip\Ubit.Zmeja.(02.seriya.iz.8).2007.XviD.DVDRip-antonios.avi
Формат : AVI
Формат/Информация : Audio Video Interleave
Размер файла : 525 Мбайт
Продолжительность : 50 м.
Общий поток : 1457 Кбит/сек
Программа кодирования : VirtualDubMod 1.5.4.1 (build 2178/release)
Библиотека кодирования : VirtualDub build 28312/release
Видео
Идентификатор : 0
Формат : MPEG-4 Visual
Профиль формата : Advanced [email protected]
Параметр BVOP формата : 1
Параметр QPel формата : Нет
Параметр GMC формата : Без точки перехода
Параметр матрицы формата : Выборочная
Идентификатор кодека : XVID
Идентификатор кодека/Подсказка : XviD
Продолжительность : 50 м.
Битрейт : 1319 Кбит/сек
Ширина : 704 пикселя
Высота : 528 пикселей
Соотношение сторон : 4:3
Частота кадров : 25,000 кадров/сек
Цветовое пространство : YUV
Субдискретизация насыщенности : 4:2:0
Битовая глубина : 8 бит
Тип развёртки : Прогрессивная
Метод сжатия : С потерями
Бит/(Пиксели*Кадры) : 0.142
Размер потока : 475 Мбайт (91%)
Библиотека кодирования : XviD 1.2.1 (UTC 2008-12-04)
Аудио
Идентификатор : 1
Формат : MPEG Audio
Версия формата : Version 1
Профиль формата : Layer 3
Режим : Joint stereo
Расширение режима : MS Stereo
Идентификатор кодека : 55
Идентификатор кодека/Подсказка : MP3
Продолжительность : 50 м.
Вид битрейта : Постоянный
Битрейт : 128 Кбит/сек
Каналы : 2 канала
Частота : 48,0 КГц
Метод сжатия : С потерями
Размер потока : 46,1 Мбайт (9%)
Выравнивание : Соединение по промежуткам
Продолжительность промежутка : 40 мс. (1,00 видеокадр)
Время предзагрузки промежутка : 504 мс.
Библиотека кодирования : LAME3.98.2
Скриншоты:
       
Время раздачи: 24/7 до 5 сидов
Other forum [Profile] [PM]
Display posts from previous:    
Reply to topic

The time now is: Today 17:46

All times are GMT + 3 Hours



You cannot post new topics in this forum
You cannot reply to topics in this forum
You cannot edit your posts in this forum
You cannot delete your posts in this forum
You cannot vote in polls in this forum
You cannot attach files in this forum
You cannot download files in this forum