Today is a free download without charge Download

The Samuel Jackson Five в клубе "Underground" (г. Киев) 20 апреля 2012 [2012, Indie, Post-Rock & Post-Punk, HDCamRip]

Reply to topic
 
Author
Message

Omen ®

Longevity: 8 years 4 months

Posts: 181087

Торрент-статистика

Post 23-Mar-2013 16:05

[Quote]

The Samuel Jackson Five в клубе "Underground" (г. Киев) 20 апреля 2012
Жанр: Indie, Post-Rock & Post-Punk
Продолжительность: 00:20:57
Год выпуска: 2012
Описание: Треклист:
02. Never-ending now
03. Skinflick Dress Rehearsal
04. And Then We Met The Locals
05. Psycho Derelict
- Видеосъемка велась с очень нестабильного видео-штатива на фотик Canon 5D mark II;
- Звук состоит из микса общего сигнала с пульта звукрежа и рекодера Zoom H4n с внешней стерео-парой микрофонов Neumann KM 184, который стоял в зале.
Качество: HDCamRip
Контейнер: MP4
Видео кодек: H.264
Аудио кодек: AAC
Видео: NTSC, H.264, 1920x1080 (16:9), 30fps, ~12138 Kbps
Аудио: AAC, 48000Hz, 2 ch, 320 Kbps

Отчёт MediaInfo / BDInfo

ОбщееПолное имя : G:\Downloads\The Samuel Jackson Five в клубе Underground. Киев. 20.04.12\The Samuel Jackson Five - 02. Never-ending now (live 20.04.12).mp4Формат : MPEG-4Профиль формата : Base Media / Version 2Идентификатор кодека : mp42Размер файла : 283 МбайтПродолжительность : 3 м. 12 с.Общий поток : 12,4 Мбит/секДата кодирования : UTC 2012-04-23 12:11:39Дата пометки : UTC 2012-04-23 12:11:39
ВидеоИдентификатор : 2Формат : AVCФормат/Информация : Advanced Video CodecПрофиль формата : [email protected]Параметр CABAC формата : ДаПараметр ReFrames формата : 2 кадраПараметр GOP формата : M=2, N=24Идентификатор кодека : avc1Идентификатор кодека/Информация : Advanced Video CodingПродолжительность : 3 м. 12 с.Вид битрейта : ПеременныйБитрейт : 12,1 Мбит/секШирина : 1920 пикселейВысота : 1080 пикселейСоотношение сторон : 16:9Режим частоты кадров : ПостоянныйЧастота кадров : 29,970 кадров/секСтандарт вещания : NTSCЦветовое пространство : YUVСубдискретизация насыщенности : 4:2:0Битовая глубина : 8 битТип развёртки : ПрогрессивнаяБит/(Пиксели*Кадры) : 0.194Размер потока : 275 Мбайт (97%)Язык : EnglishДата кодирования : UTC 2012-04-23 12:11:39Дата пометки : UTC 2012-04-23 12:11:39
АудиоИдентификатор : 1Формат : AACФормат/Информация : Advanced Audio CodecПрофиль формата : LCИдентификатор кодека : 40Продолжительность : 3 м. 12 с.Вид битрейта : ПостоянныйБитрейт : 320 Кбит/секКаналы : 2 каналаРасположение каналов : Front: L RЧастота : 48,0 КГцМетод сжатия : С потерямиРазмер потока : 6,85 Мбайт (3%)Язык : EnglishДата кодирования : UTC 2012-04-23 12:11:39Дата пометки : UTC 2012-04-23 12:11:39

Скриншоты



Other forum [Profile] [PM]
Display posts from previous:    
Reply to topic

The time now is: Today 08:29

All times are GMT + 3 Hours



You cannot post new topics in this forum
You cannot reply to topics in this forum
You cannot edit your posts in this forum
You cannot delete your posts in this forum
You cannot vote in polls in this forum
You cannot attach files in this forum
You cannot download files in this forum