Today is a free download without charge Download

Ремонт воды - Концерт в арт-центре "Квартира" (г. Днепропетровск) 13 октября 2012г. [2012, Rock, HDCamRip]

Reply to topic
 
Author
Message

Omen ®

Longevity: 8 years 3 months

Posts: 181087

Торрент-статистика

Post 23-Mar-2013 16:05

[Quote]

Ремонт воды - Концерт в арт-центре "Квартира" (г. Днепропетровск) 13 октября 2012г.
Жанр: Rock
Продолжительность: 01:50:19
Год выпуска: 2012
Описание:
Треклист:
01. Ленинград
02. Зая
03. И воск, и чай
04. Море
05. Бегите, гордая
06. Ушел Антон
07. Каказбулах
08. Багров
09. Гагарин
10. Был луны
11. Знай, ничего не будет
12. Мертвецы
13. Заведи барабанщика
14. Саша Тюссо
15. Огромный африканский континент
16. Танзания
17. Свобода
18. Мой этаж
19. Миша
20. Дядя Зяма
21. Ночные страхи
22. Миндалями
23. Пароход
24. Жук
25. Елка
26. Шопот ухла
- Съемка велась с очень нестабильного видео-штатива в основном на фотик Canon 5D mark II. Местами проскакивает запись с видеокамеры Sony HDR-HC7.
- Звук писался любительски, но по-треково на Fostex D2424LV и в последствии так же любительски сводился в домашних условиях.
Качество: HDCamRip
Контейнер: MP4
Видео кодек: H.264
Аудио кодек: AAC
Видео: NTSC, H.264, 1920x1080 (16:9), 30fps, ~12138 Kbps
Аудио: AAC, 48000Hz, 2 ch, 320 Kbps

Отчёт MediaInfo / BDInfo

ОбщееПолное имя : G:\Downloads\Ремонт воды. Концерт в арт-центре Квартира. Днепропетровск. 13.10.12\Ремонт воды - 01. Ленинград (live 13.10.12).mp4Формат : MPEG-4Профиль формата : Base Media / Version 2Идентификатор кодека : mp42Размер файла : 264 МбайтПродолжительность : 2 м. 58 с.Общий поток : 12,4 Мбит/секДата кодирования : UTC 2012-11-01 18:03:39Дата пометки : UTC 2012-11-01 18:03:39
ВидеоИдентификатор : 2Формат : AVCФормат/Информация : Advanced Video CodecПрофиль формата : [email protected]Параметр CABAC формата : ДаПараметр ReFrames формата : 2 кадраПараметр GOP формата : M=2, N=24Идентификатор кодека : avc1Идентификатор кодека/Информация : Advanced Video CodingПродолжительность : 2 м. 58 с.Вид битрейта : ПеременныйБитрейт : 12,1 Мбит/секШирина : 1920 пикселейВысота : 1080 пикселейСоотношение сторон : 16:9Режим частоты кадров : ПостоянныйЧастота кадров : 29,970 кадров/секСтандарт вещания : NTSCЦветовое пространство : YUVСубдискретизация насыщенности : 4:2:0Битовая глубина : 8 битТип развёртки : ПрогрессивнаяБит/(Пиксели*Кадры) : 0.194Размер потока : 259 Мбайт (97%)Язык : EnglishДата кодирования : UTC 2012-11-01 18:13:39Дата пометки : UTC 2012-11-01 18:13:39
АудиоИдентификатор : 1Формат : AACФормат/Информация : Advanced Audio CodecПрофиль формата : LCИдентификатор кодека : 40Продолжительность : 2 м. 58 с.Вид битрейта : ПостоянныйБитрейт : 320 Кбит/секКаналы : 2 каналаРасположение каналов : Front: L RЧастота : 48,0 КГцМетод сжатия : С потерямиРазмер потока : 5,85 Мбайт (3%)Язык : EnglishДата кодирования : UTC 2012-11-01 18:13:39Дата пометки : UTC 2012-11-01 18:13:39

Скриншоты




Other forum [Profile] [PM]
Display posts from previous:    
Reply to topic

The time now is: Today 08:11

All times are GMT + 3 Hours



You cannot post new topics in this forum
You cannot reply to topics in this forum
You cannot edit your posts in this forum
You cannot delete your posts in this forum
You cannot vote in polls in this forum
You cannot attach files in this forum
You cannot download files in this forum