Today is a free download without charge Download

VA - The Greatest Jazz Concert in the World (3CD) (1967(1990)) [MP3|320 кб/с]<Jazz, Vocal Jazz, Bop, Swing, Standards>

Reply to topic
 
Author
Message

UndegraundMen ®

Longevity: 8 years 11 months

Posts: 25145

Торрент-статистика

Post 23-Mar-2013 13:29

[Quote]

VA - The Greatest Jazz Concert in the World (3CD) (1967(1990))- Год записи: 1967
Год издания: 1990
Жанр: Jazz, Vocal Jazz, Bop, Swing, Standards
Продолжительность: 03:22:31
Кодек: MP3
Битрейт: 320 кб/с
Тип битрейта: CBR
Трек лист:
CD1
Продолжительность: 01:15:55
1. Oscar Peterson Trio - Smedley (5:03)
2. Oscar Peterson Trio - Someday My Prince Will Come (5:15)
3. Oscar Peterson Trio - Daytrain (7:19)
4. Oscar Peterson Trio - Now's The Time (8:31)
5. Oscar Peterson Trio - Memories Of You (2:27)
6. Oscar Peterson Trio - Misty (2:49)
7. Oscar Peterson Trio - I Can't Get Started (2:31)
8. Oscar Peterson Trio - Wee (10:21)
9. Coleman Hawkins with Oscar Peterson Trio - Moonglow (3:32)
10. Coleman Hawkins with Oscar Peterson Trio - Sweet Georgia Brown (4:38)
11. Coleman Hawkins with Oscar Peterson Trio - C-Jam Blues (Jam Session) (6:55)
12. T-Bone Walker, Clark Terry, Johnny Hodges, Oscar Peterson & Friends - Woman You Must Be Crazy (9:41)
13. T-Bone Walker, Clark Terry, Johnny Hodges, Oscar Peterson & Friends - Stormy Monday (6:53)
--------------------------------------------------------------------------------

CD2

Продолжительность: 01:20:00
1. Duke Ellington Orchestra - Swamp Goo (5:25)
2. Duke Ellington Orchestra - Gurdle Hurdle (3:15)
3. Duke Ellington Orchestra - The Shepherd (6:58)
4. Duke Ellington Orchestra - Rue Bleue (3:14)
5. Duke Ellington Orchestra - Salome (4:21)
6. Duke Ellington Orchestra - Chromatic Love Affair, A (4:37)
7. Duke Ellington Orchestra - Mount Harrissa (7:17)
8. Duke Ellington Orchestra - Blood Count (Manuscript) (3:58)
9. Duke Ellington Orchestra - Rockin' In Rhythm (4:20)
10. Duke Ellington Orchestra - Very Tenor (8:31)
11. Duke Ellington Orchestra - Onions (Wild Onions) (2:55)
12. Duke Ellington Orchestra - Take The "A" Train (5:29)
--------------------------------------------------------------------------------

CD3

Продолжительность: 01:20:00
1. Duke Ellington Orchestra - Satin Doll (5:25)
2. Duke Ellington Orchestra - Tootie for Cootie (6:45)
3. Duke Ellington Orchestra - Up Jump (3:38)
4. Duke Ellington Orchestra - Prelude to a Kiss (4:39)
5. Duke Ellington Orchestra - Mood Indigo / I Got It Bad (And That Ain't Good) (6:08)
6. Duke Ellington Orchestra - Things Ain't What They Used To Be (4:31)
7. Ella Fitzgerald, Duke Ellington Orchestra, Jimmy Jones Trio - Don't Be That Way (4:09)
8. Ella Fitzgerald, Duke Ellington Orchestra, Jimmy Jones Trio - You've Changed (4:12)
9. Ella Fitzgerald, Duke Ellington Orchestra, Jimmy Jones Trio - Let's Do It (4:38)
10. Ella Fitzgerald, Duke Ellington Orchestra, Jimmy Jones Trio - On the Sunny Side of the Street (2:14)
11. Ella Fitzgerald & The Jimmy Jones Trio - It's Only a Paper Moon (2:31)
12. Ella Fitzgerald & The Jimmy Jones Trio - Day Dream (4:49)
13. Ella Fitzgerald & The Jimmy Jones Trio - If I Could Be With You (3:18)
14. Ella Fitzgerald & The Jimmy Jones Trio - Between the Devil and the Deep Blue Sea (3:50)
15. Ella Fitzgerald, Duke Ellington Orchestra, Jimmy Jones Trio - Cotton Tail (5:29)
--------------------------------------------------------------------------------

MI&#58;

Код:
Общее
Полное имя                               : C:\Users\VA - The Greatest Jazz Concert in the World (1990)\CD1\1-01 Smedley.mp3
Формат                                   : MPEG Audio
Размер файла                             : 12,0 Мбайт
Продолжительность                        : 5 м. 3 с.
Режим общего битрейта                    : Постоянный
Общий поток                              : 320 Кбит/сек
Альбом                                   : Greatest Jazz Concert In The World (Disc 1)
Часть/Положение                          : 1
Часть/Всего                              : 3
Трек                                     : Smedley
Трек/Положение                           : 1
Трек/Всего                               : 13
Компиляция                               : Yes
Исполнитель                              : Oscar Peterson Trio
Кодирование произвёл                     : LAME 3.98 (Max 0.9.1)
Жанр                                     : Jazz
Дата записи                              : 1967
Дата кодирования                         : UTC 2011-04- 0T13:00:30
Дата пометки                             : UTC 2011-04- 0T13:00:30
Библиотека кодирования                   : LAME3.98
Обложка                                  : Yes
MIME-тип обложки                         : image/png
Аудио
Формат                                   : MPEG Audio
Версия формата                           : Version 1
Профиль формата                          : Layer 3
Режим                                    : Joint stereo
Продолжительность                        : 5 м. 3 с.
Вид битрейта                             : Постоянный
Битрейт                                  : 320 Кбит/сек
Каналы                                   : 2 канала
Частота                                  : 44,1 КГц
Метод сжатия                             : С потерями
Размер потока                            : 11,6 Мбайт (97%)
Библиотека кодирования                   : LAME3.98
Настройки программы                      : -m j -V 4 -q 2 -lowpass 20.5
Общее
Полное имя                               : C:\Users\VA - The Greatest Jazz Concert in the World (1990)\CD1\1-02 Someday My Prince Will Come.mp3
Формат                                   : MPEG Audio
Размер файла                             : 12,4 Мбайт
Продолжительность                        : 5 м. 15 с.
Режим общего битрейта                    : Постоянный
Общий поток                              : 320 Кбит/сек
Альбом                                   : Greatest Jazz Concert In The World (Disc 1)
Часть/Положение                          : 1
Часть/Всего                              : 3
Трек                                     : Someday My Prince Will Come
Трек/Положение                           : 2
Трек/Всего                               : 13
Компиляция                               : Yes
Исполнитель                              : Oscar Peterson Trio
Кодирование произвёл                     : LAME 3.98 (Max 0.9.1)
Жанр                                     : Jazz
Дата записи                              : 1967
Дата кодирования                         : UTC 2011-04- 0T13:08:13
Дата пометки                             : UTC 2011-04- 0T13:08:13
Библиотека кодирования                   : LAME3.98
Обложка                                  : Yes
MIME-тип обложки                         : image/png
Аудио
Формат                                   : MPEG Audio
Версия формата                           : Version 1
Профиль формата                          : Layer 3
Режим                                    : Joint stereo
Расширение режима                        : MS Stereo
Продолжительность                        : 5 м. 15 с.
Вид битрейта                             : Постоянный
Битрейт                                  : 320 Кбит/сек
Каналы                                   : 2 канала
Частота                                  : 44,1 КГц
Метод сжатия                             : С потерями
Размер потока                            : 12,0 Мбайт (97%)
Библиотека кодирования                   : LAME3.98
Настройки программы                      : -m j -V 4 -q 2 -lowpass 20.5
Общее
Полное имя                               : C:\Users\VA - The Greatest Jazz Concert in the World (1990)\CD1\1-03 Daytrain.mp3
Формат                                   : MPEG Audio
Размер файла                             : 17,2 Мбайт
Продолжительность                        : 7 м. 19 с.
Режим общего битрейта                    : Постоянный
Общий поток                              : 320 Кбит/сек
Альбом                                   : Greatest Jazz Concert In The World (Disc 1)
Часть/Положение                          : 1
Часть/Всего                              : 3
Трек                                     : Daytrain
Трек/Положение                           : 3
Трек/Всего                               : 13
Компиляция                               : Yes
Исполнитель                              : Oscar Peterson Trio
Кодирование произвёл                     : LAME 3.98 (Max 0.9.1)
Жанр                                     : Jazz
Дата записи                              : 1967
Дата кодирования                         : UTC 2011-04- 0T13:01:54
Дата пометки                             : UTC 2011-04- 0T13:01:54
Библиотека кодирования                   : LAME3.98
Обложка                                  : Yes
MIME-тип обложки                         : image/png
Аудио
Формат                                   : MPEG Audio
Версия формата                           : Version 1
Профиль формата                          : Layer 3
Режим                                    : Joint stereo
Расширение режима                        : MS Stereo
Продолжительность                        : 7 м. 19 с.
Вид битрейта                             : Постоянный
Битрейт                                  : 320 Кбит/сек
Каналы                                   : 2 канала
Частота                                  : 44,1 КГц
Метод сжатия                             : С потерями
Размер потока                            : 16,8 Мбайт (98%)
Библиотека кодирования                   : LAME3.98
Настройки программы                      : -m j -V 4 -q 2 -lowpass 20.5
Общее
Полное имя                               : C:\Users\VA - The Greatest Jazz Concert in the World (1990)\CD1\1-04 Now's The Time.mp3
Формат                                   : MPEG Audio
Размер файла                             : 19,9 Мбайт
Продолжительность                        : 8 м. 31 с.
Режим общего битрейта                    : Постоянный
Общий поток                              : 320 Кбит/сек
Альбом                                   : Greatest Jazz Concert In The World (Disc 1)
Часть/Положение                          : 1
Часть/Всего                              : 3
Трек                                     : Now's The Time
Трек/Положение                           : 4
Трек/Всего                               : 13
Компиляция                               : Yes
Исполнитель                              : Oscar Peterson Trio
Кодирование произвёл                     : LAME 3.98 (Max 0.9.1)
Жанр                                     : Jazz
Дата записи                              : 1967
Дата кодирования                         : UTC 2011-04- 0T13:13:44
Дата пометки                             : UTC 2011-04- 0T13:13:44
Библиотека кодирования                   : LAME3.98
Обложка                                  : Yes
MIME-тип обложки                         : image/png
Аудио
Формат                                   : MPEG Audio
Версия формата                           : Version 1
Профиль формата                          : Layer 3
Режим                                    : Joint stereo
Расширение режима                        : MS Stereo
Продолжительность                        : 8 м. 31 с.
Вид битрейта                             : Постоянный
Битрейт                                  : 320 Кбит/сек
Каналы                                   : 2 канала
Частота                                  : 44,1 КГц
Метод сжатия                             : С потерями
Размер потока                            : 19,5 Мбайт (98%)
Библиотека кодирования                   : LAME3.98
Настройки программы                      : -m j -V 4 -q 2 -lowpass 20.5
Общее
Полное имя                               : C:\Users\VA - The Greatest Jazz Concert in the World (1990)\CD1\1-05 Memories Of You.mp3
Формат                                   : MPEG Audio
Размер файла                             : 6,03 Мбайт
Продолжительность                        : 2 м. 27 с.
Режим общего битрейта                    : Постоянный
Общий поток                              : 320 Кбит/сек
Альбом                                   : Greatest Jazz Concert In The World (Disc 1)
Часть/Положение                          : 1
Часть/Всего                              : 3
Трек                                     : Memories Of You
Трек/Положение                           : 5
Трек/Всего                               : 13
Компиляция                               : Yes
Исполнитель                              : Oscar Peterson Trio
Кодирование произвёл                     : LAME 3.98 (Max 0.9.1)
Жанр                                     : Jazz
Дата записи                              : 1967
Дата кодирования                         : UTC 2011-04- 0T13:14:25
Дата пометки                             : UTC 2011-04- 0T13:14:25
Библиотека кодирования                   : LAME3.98
Обложка                                  : Yes
MIME-тип обложки                         : image/png
Аудио
Формат                                   : MPEG Audio
Версия формата                           : Version 1
Профиль формата                          : Layer 3
Режим                                    : Joint stereo
Продолжительность                        : 2 м. 27 с.
Вид битрейта                             : Постоянный
Битрейт                                  : 320 Кбит/сек
Каналы                                   : 2 канала
Частота                                  : 44,1 КГц
Метод сжатия                             : С потерями
Размер потока                            : 5,61 Мбайт (93%)
Библиотека кодирования                   : LAME3.98
Настройки программы                      : -m j -V 4 -q 2 -lowpass 20.5
Общее
Полное имя                               : C:\Users\VA - The Greatest Jazz Concert in the World (1990)\CD1\1-06 Misty.mp3
Формат                                   : MPEG Audio
Размер файла                             : 6,86 Мбайт
Продолжительность                        : 2 м. 49 с.
Режим общего битрейта                    : Постоянный
Общий поток                              : 320 Кбит/сек
Альбом                                   : Greatest Jazz Concert In The World (Disc 1)
Часть/Положение                          : 1
Часть/Всего                              : 3
Трек                                     : Misty
Трек/Положение                           : 6
Трек/Всего                               : 13
Компиляция                               : Yes
Исполнитель                              : Oscar Peterson Trio
Кодирование произвёл                     : LAME 3.98 (Max 0.9.1)
Жанр                                     : Jazz
Дата записи                              : 1967
Дата кодирования                         : UTC 2011-04- 0T13:14:56
Дата пометки                             : UTC 2011-04- 0T13:14:56
Библиотека кодирования                   : LAME3.98
Обложка                                  : Yes
MIME-тип обложки                         : image/png
Аудио
Формат                                   : MPEG Audio
Версия формата                           : Version 1
Профиль формата                          : Layer 3
Режим                                    : Joint stereo
Расширение режима                        : MS Stereo
Продолжительность                        : 2 м. 49 с.
Вид битрейта                             : Постоянный
Битрейт                                  : 320 Кбит/сек
Каналы                                   : 2 канала
Частота                                  : 44,1 КГц
Метод сжатия                             : С потерями
Размер потока                            : 6,45 Мбайт (94%)
Библиотека кодирования                   : LAME3.98
Настройки программы                      : -m j -V 4 -q 2 -lowpass 20.5
Общее
Полное имя                               : C:\Users\VA - The Greatest Jazz Concert in the World (1990)\CD1\1-07 I Can't Get Started.mp3
Формат                                   : MPEG Audio
Размер файла                             : 6,18 Мбайт
Продолжительность                        : 2 м. 31 с.
Режим общего битрейта                    : Постоянный
Общий поток                              : 320 Кбит/сек
Альбом                                   : Greatest Jazz Concert In The World (Disc 1)
Часть/Положение                          : 1
Часть/Всего                              : 3
Трек                                     : I Can't Get Started
Трек/Положение                           : 7
Трек/Всего                               : 13
Компиляция                               : Yes
Исполнитель                              : Oscar Peterson Trio
Кодирование произвёл                     : LAME 3.98 (Max 0.9.1)
Жанр                                     : Jazz
Дата записи                              : 1967
Дата кодирования                         : UTC 2011-04- 0T13:01:59
Дата пометки                             : UTC 2011-04- 0T13:01:59
Библиотека кодирования                   : LAME3.98
Обложка                                  : Yes
MIME-тип обложки                         : image/png
Аудио
Формат                                   : MPEG Audio
Версия формата                           : Version 1
Профиль формата                          : Layer 3
Режим                                    : Joint stereo
Расширение режима                        : MS Stereo
Продолжительность                        : 2 м. 31 с.
Вид битрейта                             : Постоянный
Битрейт                                  : 320 Кбит/сек
Каналы                                   : 2 канала
Частота                                  : 44,1 КГц
Метод сжатия                             : С потерями
Размер потока                            : 5,77 Мбайт (93%)
Библиотека кодирования                   : LAME3.98
Настройки программы                      : -m j -V 4 -q 2 -lowpass 20.5
Общее
Полное имя                               : C:\Users\VA - The Greatest Jazz Concert in the World (1990)\CD1\1-08 Wee.mp3
Формат                                   : MPEG Audio
Размер файла                             : 24,1 Мбайт
Продолжительность                        : 10 м.
Режим общего битрейта                    : Постоянный
Общий поток                              : 320 Кбит/сек
Альбом                                   : Greatest Jazz Concert In The World (Disc 1)
Часть/Положение                          : 1
Часть/Всего                              : 3
Трек                                     : Wee
Трек/Положение                           : 8
Трек/Всего                               : 13
Компиляция                               : Yes
Исполнитель                              : Oscar Peterson Trio
Кодирование произвёл                     : LAME 3.98 (Max 0.9.1)
Жанр                                     : Jazz
Дата записи                              : 1967
Дата кодирования                         : UTC 2011-04- 0T13:05:25
Дата пометки                             : UTC 2011-04- 0T13:05:25
Библиотека кодирования                   : LAME3.98
Обложка                                  : Yes
MIME-тип обложки                         : image/png
Аудио
Формат                                   : MPEG Audio
Версия формата                           : Version 1
Профиль формата                          : Layer 3
Режим                                    : Joint stereo
Продолжительность                        : 10 м.
Вид битрейта                             : Постоянный
Битрейт                                  : 320 Кбит/сек
Каналы                                   : 2 канала
Частота                                  : 44,1 КГц
Метод сжатия                             : С потерями
Размер потока                            : 23,7 Мбайт (98%)
Библиотека кодирования                   : LAME3.98
Настройки программы                      : -m j -V 4 -q 2 -lowpass 20.5
Общее
Полное имя                               : C:\Users\VA - The Greatest Jazz Concert in the World (1990)\CD1\1-09 Moonglow.mp3
Формат                                   : MPEG Audio
Размер файла                             : 8,52 Мбайт
Продолжительность                        : 3 м. 32 с.
Режим общего битрейта                    : Постоянный
Общий поток                              : 320 Кбит/сек
Альбом                                   : Greatest Jazz Concert In The World (Disc 1)
Часть/Положение                          : 1
Часть/Всего                              : 3
Трек                                     : Moonglow
Трек/Положение                           : 9
Трек/Всего                               : 13
Компиляция                               : Yes
Исполнитель                              : Coleman Hawkins with Oscar Peterson Trio
Кодирование произвёл                     : LAME 3.98 (Max 0.9.1)
Жанр                                     : Jazz
Дата записи                              : 1967
Дата кодирования                         : UTC 2011-04- 0T12:58:26
Дата пометки                             : UTC 2011-04- 0T12:58:26
Библиотека кодирования                   : LAME3.98
Обложка                                  : Yes
MIME-тип обложки                         : image/png
Аудио
Формат                                   : MPEG Audio
Версия формата                           : Version 1
Профиль формата                          : Layer 3
Режим                                    : Joint stereo
Расширение режима                        : MS Stereo
Продолжительность                        : 3 м. 32 с.
Вид битрейта                             : Постоянный
Битрейт                                  : 320 Кбит/сек
Каналы                                   : 2 канала
Частота                                  : 44,1 КГц
Метод сжатия                             : С потерями
Размер потока                            : 8,11 Мбайт (95%)
Библиотека кодирования                   : LAME3.98
Настройки программы                      : -m j -V 4 -q 2 -lowpass 20.5
Общее
Полное имя                               : C:\Users\VA - The Greatest Jazz Concert in the World (1990)\CD1\1-10 Sweet Georgia Brown.mp3
Формат                                   : MPEG Audio
Размер файла                             : 11,0 Мбайт
Продолжительность                        : 4 м. 38 с.
Режим общего битрейта                    : Постоянный
Общий поток                              : 320 Кбит/сек
Альбом                                   : Greatest Jazz Concert In The World (Disc 1)
Часть/Положение                          : 1
Часть/Всего                              : 3
Трек                                     : Sweet Georgia Brown
Трек/Положение                           : 10
Трек/Всего                               : 13
Компиляция                               : Yes
Исполнитель                              : Coleman Hawkins with Oscar Peterson Trio
Кодирование произвёл                     : LAME 3.98 (Max 0.9.1)
Жанр                                     : Jazz
Дата записи                              : 1967
Дата кодирования                         : UTC 2011-04- 0T12:59:09
Дата пометки                             : UTC 2011-04- 0T12:59:09
Библиотека кодирования                   : LAME3.98
Обложка                                  : Yes
MIME-тип обложки                         : image/png
Аудио
Формат                                   : MPEG Audio
Версия формата                           : Version 1
Профиль формата                          : Layer 3
Режим                                    : Joint stereo
Продолжительность                        : 4 м. 38 с.
Вид битрейта                             : Постоянный
Битрейт                                  : 320 Кбит/сек
Каналы                                   : 2 канала
Частота                                  : 44,1 КГц
Метод сжатия                             : С потерями
Размер потока                            : 10,6 Мбайт (96%)
Библиотека кодирования                   : LAME3.98
Настройки программы                      : -m j -V 4 -q 2 -lowpass 20.5
Общее
Полное имя                               : C:\Users\VA - The Greatest Jazz Concert in the World (1990)\CD1\1-11 C-Jam Blues (Jam Session).mp3
Формат                                   : MPEG Audio
Размер файла                             : 16,3 Мбайт
Продолжительность                        : 6 м. 55 с.
Режим общего битрейта                    : Постоянный
Общий поток                              : 320 Кбит/сек
Альбом                                   : Greatest Jazz Concert In The World (Disc 1)
Часть/Положение                          : 1
Часть/Всего                              : 3
Трек                                     : C-Jam Blues (Jam Session)
Трек/Положение                           : 11
Трек/Всего                               : 13
Компиляция                               : Yes
Исполнитель                              : Coleman Hawkins with Oscar Peterson Trio
Кодирование произвёл                     : LAME 3.98 (Max 0.9.1)
Жанр                                     : Jazz
Дата записи                              : 1967
Дата кодирования                         : UTC 2011-04- 0T13:09:47
Дата пометки                             : UTC 2011-04- 0T13:09:47
Библиотека кодирования                   : LAME3.98
Обложка                                  : Yes
MIME-тип обложки                         : image/png
Аудио
Формат                                   : MPEG Audio
Версия формата                           : Version 1
Профиль формата                          : Layer 3
Режим                                    : Joint stereo
Расширение режима                        : MS Stereo
Продолжительность                        : 6 м. 55 с.
Вид битрейта                             : Постоянный
Битрейт                                  : 320 Кбит/сек
Каналы                                   : 2 канала
Частота                                  : 44,1 КГц
Метод сжатия                             : С потерями
Размер потока                            : 15,9 Мбайт (97%)
Библиотека кодирования                   : LAME3.98
Настройки программы                      : -m j -V 4 -q 2 -lowpass 20.5
Общее
Полное имя                               : C:\Users\VA - The Greatest Jazz Concert in the World (1990)\CD1\1-12 Woman You Must Be Crazy.mp3
Формат                                   : MPEG Audio
Размер файла                             : 22,6 Мбайт
Продолжительность                        : 9 м. 42 с.
Режим общего битрейта                    : Постоянный
Общий поток                              : 320 Кбит/сек
Альбом                                   : Greatest Jazz Concert In The World (Disc 1)
Часть/Положение                          : 1
Часть/Всего                              : 3
Трек                                     : Woman You Must Be Crazy
Трек/Положение                           : 12
Трек/Всего                               : 13
Компиляция                               : Yes
Исполнитель                              : T-Bone Walker, Clark Terry, Johnny Hodges, Oscar Peterson & Friends
Кодирование произвёл                     : LAME 3.98 (Max 0.9.1)
Жанр                                     : Jazz
Дата записи                              : 1967
Дата кодирования                         : UTC 2011-04- 0T13:12:27
Дата пометки                             : UTC 2011-04- 0T13:12:27
Библиотека кодирования                   : LAME3.98
Обложка                                  : Yes
MIME-тип обложки                         : image/png
Аудио
Формат                                   : MPEG Audio
Версия формата                           : Version 1
Профиль формата                          : Layer 3
Режим                                    : Joint stereo
Продолжительность                        : 9 м. 42 с.
Вид битрейта                             : Постоянный
Битрейт                                  : 320 Кбит/сек
Каналы                                   : 2 канала
Частота                                  : 44,1 КГц
Метод сжатия                             : С потерями
Размер потока                            : 22,2 Мбайт (98%)
Библиотека кодирования                   : LAME3.98
Настройки программы                      : -m j -V 4 -q 2 -lowpass 20.5
Общее
Полное имя                               : C:\Users\VA - The Greatest Jazz Concert in the World (1990)\CD1\1-13 Stormy Monday.mp3
Формат                                   : MPEG Audio
Размер файла                             : 16,2 Мбайт
Продолжительность                        : 6 м. 53 с.
Режим общего битрейта                    : Постоянный
Общий поток                              : 320 Кбит/сек
Альбом                                   : Greatest Jazz Concert In The World (Disc 1)
Часть/Положение                          : 1
Часть/Всего                              : 3
Трек                                     : Stormy Monday
Трек/Положение                           : 13
Трек/Всего                               : 13
Компиляция                               : Yes
Исполнитель                              : T-Bone Walker, Clark Terry, Johnny Hodges, Oscar Peterson & Friends
Кодирование произвёл                     : LAME 3.98 (Max 0.9.1)
Жанр                                     : Jazz
Дата записи                              : 1967
Дата кодирования                         : UTC 2011-04- 0T13:05:49
Дата пометки                             : UTC 2011-04- 0T13:05:49
Библиотека кодирования                   : LAME3.98
Обложка                                  : Yes
MIME-тип обложки                         : image/png
Аудио
Формат                                   : MPEG Audio
Версия формата                           : Version 1
Профиль формата                          : Layer 3
Режим                                    : Joint stereo
Расширение режима                        : MS Stereo
Продолжительность                        : 6 м. 53 с.
Вид битрейта                             : Постоянный
Битрейт                                  : 320 Кбит/сек
Каналы                                   : 2 канала
Частота                                  : 44,1 КГц
Метод сжатия                             : С потерями
Размер потока                            : 15,8 Мбайт (97%)
Библиотека кодирования                   : LAME3.98
Настройки программы                      : -m j -V 4 -q 2 -lowpass 20.5
Общее
Полное имя                               : C:\Users\VA - The Greatest Jazz Concert in the World (1990)\CD1\back.jpg
Формат                                   : JPEG
Размер файла                             : 144 Кбайт
Изображения
Формат                                   : JPEG
Ширина                                   : 620 пикселей
Высота                                   : 480 пикселей
Цветовое пространство                    : YUV
Субдискретизация насыщенности            : 4:2:0
Битовая глубина                          : 8 бит
Метод сжатия                             : С потерями
Размер потока                            : 144 Кбайт (100%)
Общее
Полное имя                               : C:\Users\VA - The Greatest Jazz Concert in the World (1990)\CD1\Cover.jpg
Формат                                   : JPEG
Размер файла                             : 118 Кбайт
Изображения
Формат                                   : JPEG
Ширина                                   : 467 пикселей
Высота                                   : 465 пикселей
Цветовое пространство                    : YUV
Субдискретизация насыщенности            : 4:2:0
Битовая глубина                          : 8 бит
Метод сжатия                             : С потерями
Размер потока                            : 118 Кбайт (100%)
Общее
Полное имя                               : C:\Users\VA - The Greatest Jazz Concert in the World (1990)\CD1\Thumbs.db
Размер файла                             : 44,0 Кбайт
Общее
Полное имя                               : C:\Users\VA - The Greatest Jazz Concert in the World (1990)\CD2\2-01 Swamp Goo.mp3
Формат                                   : MPEG Audio
Размер файла                             : 12,8 Мбайт
Продолжительность                        : 5 м. 25 с.
Режим общего битрейта                    : Постоянный
Общий поток                              : 320 Кбит/сек
Альбом                                   : Greatest Jazz Concert in the World (Disc 2)
Часть/Положение                          : 2
Часть/Всего                              : 3
Трек                                     : Swamp Goo
Трек/Положение                           : 1
Трек/Всего                               : 12
Исполнитель                              : Duke Ellington Orchestra
Композитор                               : Duke Ellington
Кодирование произвёл                     : LAME 3.98 (Max 0.9.1)
Жанр                                     : Jazz
Дата записи                              : 1967
Дата кодирования                         : UTC 2011-04- 0T13:30:49
Дата пометки                             : UTC 2011-04- 0T13:30:49
Библиотека кодирования                   : LAME3.98
Обложка                                  : Yes
MIME-тип обложки                         : image/png
Аудио
Формат                                   : MPEG Audio
Версия формата                           : Version 1
Профиль формата                          : Layer 3
Режим                                    : Joint stereo
Расширение режима                        : MS Stereo
Продолжительность                        : 5 м. 25 с.
Вид битрейта                             : Постоянный
Битрейт                                  : 320 Кбит/сек
Каналы                                   : 2 канала
Частота                                  : 44,1 КГц
Метод сжатия                             : С потерями
Размер потока                            : 12,4 Мбайт (97%)
Библиотека кодирования                   : LAME3.98
Настройки программы                      : -m j -V 4 -q 2 -lowpass 20.5
Общее
Полное имя                               : C:\Users\VA - The Greatest Jazz Concert in the World (1990)\CD2\2-02 Gurdle Hurdle.mp3
Формат                                   : MPEG Audio
Размер файла                             : 7,85 Мбайт
Продолжительность                        : 3 м. 15 с.
Режим общего битрейта                    : Постоянный
Общий поток                              : 320 Кбит/сек
Альбом                                   : Greatest Jazz Concert in the World (Disc 2)
Часть/Положение                          : 2
Часть/Всего                              : 3
Трек                                     : Gurdle Hurdle
Трек/Положение                           : 2
Трек/Всего                               : 12
Исполнитель                              : Duke Ellington Orchestra
Композитор                               : Duke Ellington
Кодирование произвёл                     : LAME 3.98 (Max 0.9.1)
Жанр                                     : Jazz
Дата записи                              : 1967
Дата кодирования                         : UTC 2011-04- 0T13:31:03
Дата пометки                             : UTC 2011-04- 0T13:31:03
Библиотека кодирования                   : LAME3.98
Обложка                                  : Yes
MIME-тип обложки                         : image/png
Аудио
Формат                                   : MPEG Audio
Версия формата                           : Version 1
Профиль формата                          : Layer 3
Режим                                    : Joint stereo
Расширение режима                        : MS Stereo
Продолжительность                        : 3 м. 15 с.
Вид битрейта                             : Постоянный
Битрейт                                  : 320 Кбит/сек
Каналы                                   : 2 канала
Частота                                  : 44,1 КГц
Метод сжатия                             : С потерями
Размер потока                            : 7,44 Мбайт (95%)
Библиотека кодирования                   : LAME3.98
Настройки программы                      : -m j -V 4 -q 2 -lowpass 20.5
Общее
Полное имя                               : C:\Users\VA - The Greatest Jazz Concert in the World (1990)\CD2\2-03 The Shepherd.mp3
Формат                                   : MPEG Audio
Размер файла                             : 16,4 Мбайт
Продолжительность                        : 6 м. 58 с.
Режим общего битрейта                    : Постоянный
Общий поток                              : 320 Кбит/сек
Альбом                                   : Greatest Jazz Concert in the World (Disc 2)
Часть/Положение                          : 2
Часть/Всего                              : 3
Трек                                     : The Shepherd
Трек/Положение                           : 3
Трек/Всего                               : 12
Исполнитель                              : Duke Ellington Orchestra
Композитор                               : Duke Ellington
Кодирование произвёл                     : LAME 3.98 (Max 0.9.1)
Жанр                                     : Jazz
Дата записи                              : 1967
Дата кодирования                         : UTC 2011-04- 0T13:33:55
Дата пометки                             : UTC 2011-04- 0T13:33:55
Библиотека кодирования                   : LAME3.98
Обложка                                  : Yes
MIME-тип обложки                         : image/png
Аудио
Формат                                   : MPEG Audio
Версия формата                           : Version 1
Профиль формата                          : Layer 3
Режим                                    : Joint stereo
Расширение режима                        : MS Stereo
Продолжительность                        : 6 м. 58 с.
Вид битрейта                             : Постоянный
Битрейт                                  : 320 Кбит/сек
Каналы                                   : 2 канала
Частота                                  : 44,1 КГц
Метод сжатия                             : С потерями
Размер потока                            : 16,0 Мбайт (97%)
Библиотека кодирования                   : LAME3.98
Настройки программы                      : -m j -V 4 -q 2 -lowpass 20.5
Общее
Полное имя                               : C:\Users\VA - The Greatest Jazz Concert in the World (1990)\CD2\2-04 Rue Bleue.mp3
Формат                                   : MPEG Audio
Размер файла                             : 7,84 Мбайт
Продолжительность                        : 3 м. 14 с.
Режим общего битрейта                    : Постоянный
Общий поток                              : 320 Кбит/сек
Альбом                                   : Greatest Jazz Concert in the World (Disc 2)
Часть/Положение                          : 2
Часть/Всего                              : 3
Трек                                     : Rue Bleue
Трек/Положение                           : 4
Трек/Всего                               : 12
Исполнитель                              : Duke Ellington Orchestra
Композитор                               : Duke Ellington
Кодирование произвёл                     : LAME 3.98 (Max 0.9.1)
Жанр                                     : Jazz
Дата записи                              : 1967
Дата кодирования                         : UTC 2011-04- 0T13:33:21
Дата пометки                             : UTC 2011-04- 0T13:33:21
Библиотека кодирования                   : LAME3.98
Обложка                                  : Yes
MIME-тип обложки                         : image/png
Аудио
Формат                                   : MPEG Audio
Версия формата                           : Version 1
Профиль формата                          : Layer 3
Режим                                    : Joint stereo
Расширение режима                        : MS Stereo
Продолжительность                        : 3 м. 14 с.
Вид битрейта                             : Постоянный
Битрейт                                  : 320 Кбит/сек
Каналы                                   : 2 канала
Частота                                  : 44,1 КГц
Метод сжатия                             : С потерями
Размер потока                            : 7,43 Мбайт (95%)
Библиотека кодирования                   : LAME3.98
Настройки программы                      : -m j -V 4 -q 2 -lowpass 20.5
Общее
Полное имя                               : C:\Users\VA - The Greatest Jazz Concert in the World (1990)\CD2\2-05 Salome.mp3
Формат                                   : MPEG Audio
Размер файла                             : 10,4 Мбайт
Продолжительность                        : 4 м. 21 с.
Режим общего битрейта                    : Постоянный
Общий поток                              : 320 Кбит/сек
Альбом                                   : Greatest Jazz Concert in the World (Disc 2)
Часть/Положение                          : 2
Часть/Всего                              : 3
Трек                                     : Salome
Трек/Положение                           : 5
Трек/Всего                               : 12
Исполнитель                              : Duke Ellington Orchestra
Композитор                               : Duke Ellington
Кодирование произвёл                     : LAME 3.98 (Max 0.9.1)
Жанр                                     : Jazz
Дата записи                              : 1967
Дата кодирования                         : UTC 2011-04- 0T13:35:09
Дата пометки                             : UTC 2011-04- 0T13:35:09
Библиотека кодирования                   : LAME3.98
Обложка                                  : Yes
MIME-тип обложки                         : image/png
Аудио
Формат                                   : MPEG Audio
Версия формата                           : Version 1
Профиль формата                          : Layer 3
Режим                                    : Joint stereo
Продолжительность                        : 4 м. 21 с.
Вид битрейта                             : Постоянный
Битрейт                                  : 320 Кбит/сек
Каналы                                   : 2 канала
Частота                                  : 44,1 КГц
Метод сжатия                             : С потерями
Размер потока                            : 9,96 Мбайт (96%)
Библиотека кодирования                   : LAME3.98
Настройки программы                      : -m j -V 4 -q 2 -lowpass 20.5
Общее
Полное имя                               : C:\Users\VA - The Greatest Jazz Concert in the World (1990)\CD2\2-06 Chromatic Love Affair, A.mp3
Формат                                   : MPEG Audio
Размер файла                             : 11,0 Мбайт
Продолжительность                        : 4 м. 37 с.
Режим общего битрейта                    : Постоянный
Общий поток                              : 320 Кбит/сек
Альбом                                   : Greatest Jazz Concert in the World (Disc 2)
Часть/Положение                          : 2
Часть/Всего                              : 3
Трек                                     : Chromatic Love Affair, A
Трек/Положение                           : 6
Трек/Всего                               : 12
Исполнитель                              : Duke Ellington Orchestra
Композитор                               : Duke Ellington
Кодирование произвёл                     : LAME 3.98 (Max 0.9.1)
Жанр                                     : Jazz
Дата записи                              : 1967
Дата кодирования                         : UTC 2011-04- 0T13:36:14
Дата пометки                             : UTC 2011-04- 0T13:36:14
Библиотека кодирования                   : LAME3.98
Обложка                                  : Yes
MIME-тип обложки                         : image/png
Аудио
Формат                                   : MPEG Audio
Версия формата                           : Version 1
Профиль формата                          : Layer 3
Режим                                    : Joint stereo
Расширение режима                        : MS Stereo
Продолжительность                        : 4 м. 38 с.
Вид битрейта                             : Постоянный
Битрейт                                  : 320 Кбит/сек
Каналы                                   : 2 канала
Частота                                  : 44,1 КГц
Метод сжатия                             : С потерями
Размер потока                            : 10,6 Мбайт (96%)
Библиотека кодирования                   : LAME3.98
Настройки программы                      : -m j -V 4 -q 2 -lowpass 20.5
Общее
Полное имя                               : C:\Users\VA - The Greatest Jazz Concert in the World (1990)\CD2\2-07 Mount Harrissa.mp3
Формат                                   : MPEG Audio
Размер файла                             : 17,1 Мбайт
Продолжительность                        : 7 м. 18 с.
Режим общего битрейта                    : Постоянный
Общий поток                              : 320 Кбит/сек
Альбом                                   : Greatest Jazz Concert in the World (Disc 2)
Часть/Положение                          : 2
Часть/Всего                              : 3
Трек                                     : Mount Harrissa
Трек/Положение                           : 7
Трек/Всего                               : 12
Исполнитель                              : Duke Ellington Orchestra
Композитор                               : Duke Ellington
Кодирование произвёл                     : LAME 3.98 (Max 0.9.1)
Жанр                                     : Jazz
Дата записи                              : 1967
Дата кодирования                         : UTC 2011-04- 0T13:39:10
Дата пометки                             : UTC 2011-04- 0T13:39:10
Библиотека кодирования                   : LAME3.98
Обложка                                  : Yes
MIME-тип обложки                         : image/png
Аудио
Формат                                   : MPEG Audio
Версия формата                           : Version 1
Профиль формата                          : Layer 3
Режим                                    : Joint stereo
Расширение режима                        : MS Stereo
Продолжительность                        : 7 м. 18 с.
Вид битрейта                             : Постоянный
Битрейт                                  : 320 Кбит/сек
Каналы                                   : 2 канала
Частота                                  : 44,1 КГц
Метод сжатия                             : С потерями
Размер потока                            : 16,7 Мбайт (98%)
Библиотека кодирования                   : LAME3.98
Настройки программы                      : -m j -V 4 -q 2 -lowpass 20.5
Общее
Полное имя                               : C:\Users\VA - The Greatest Jazz Concert in the World (1990)\CD2\2-08 Blood Count (Manuscript).mp3
Формат                                   : MPEG Audio
Размер файла                             : 9,53 Мбайт
Продолжительность                        : 3 м. 59 с.
Режим общего битрейта                    : Постоянный
Общий поток                              : 320 Кбит/сек
Альбом                                   : Greatest Jazz Concert in the World (Disc 2)
Часть/Положение                          : 2
Часть/Всего                              : 3
Трек                                     : Blood Count (Manuscript)
Трек/Положение                           : 8
Трек/Всего                               : 12
Исполнитель                              : Duke Ellington Orchestra
Композитор                               : Billy Strayhorn
Кодирование произвёл                     : LAME 3.98 (Max 0.9.1)
Жанр                                     : Jazz
Дата записи                              : 1967
Дата кодирования                         : UTC 2011-04- 0T13:38:39
Дата пометки                             : UTC 2011-04- 0T13:38:39
Библиотека кодирования                   : LAME3.98
Обложка                                  : Yes
MIME-тип обложки                         : image/png
Аудио
Формат                                   : MPEG Audio
Версия формата                           : Version 1
Профиль формата                          : Layer 3
Режим                                    : Joint stereo
Расширение режима                        : MS Stereo
Продолжительность                        : 3 м. 59 с.
Вид битрейта                             : Постоянный
Битрейт                                  : 320 Кбит/сек
Каналы                                   : 2 канала
Частота                                  : 44,1 КГц
Метод сжатия                             : С потерями
Размер потока                            : 9,12 Мбайт (96%)
Библиотека кодирования                   : LAME3.98
Настройки программы                      : -m j -V 4 -q 2 -lowpass 20.5
Общее
Полное имя                               : C:\Users\VA - The Greatest Jazz Concert in the World (1990)\CD2\2-09 Rockin' In Rhythm.mp3
Формат                                   : MPEG Audio
Размер файла                             : 10,3 Мбайт
Продолжительность                        : 4 м. 20 с.
Режим общего битрейта                    : Постоянный
Общий поток                              : 320 Кбит/сек
Альбом                                   : Greatest Jazz Concert in the World (Disc 2)
Часть/Положение                          : 2
Часть/Всего                              : 3
Трек                                     : Rockin' In Rhythm
Трек/Положение                           : 9
Трек/Всего                               : 12
Исполнитель                              : Duke Ellington Orchestra
Композитор                               : Duke Ellington, Harry Carney, Irving Mills
Кодирование произвёл                     : LAME 3.98 (Max 0.9.1)
Жанр                                     : Jazz
Дата записи                              : 1967
Дата кодирования                         : UTC 2011-04- 0T13:40:57
Дата пометки                             : UTC 2011-04- 0T13:40:57
Библиотека кодирования                   : LAME3.98
Обложка                                  : Yes
MIME-тип обложки                         : image/png
Аудио
Формат                                   : MPEG Audio
Версия формата                           : Version 1
Профиль формата                          : Layer 3
Режим                                    : Joint stereo
Расширение режима                        : MS Stereo
Продолжительность                        : 4 м. 20 с.
Вид битрейта                             : Постоянный
Битрейт                                  : 320 Кбит/сек
Каналы                                   : 2 канала
Частота                                  : 44,1 КГц
Метод сжатия                             : С потерями
Размер потока                            : 9,92 Мбайт (96%)
Библиотека кодирования                   : LAME3.98
Настройки программы                      : -m j -V 4 -q 2 -lowpass 20.5
Общее
Полное имя                               : C:\Users\VA - The Greatest Jazz Concert in the World (1990)\CD2\2-10 Very Tenor.mp3
Формат                                   : MPEG Audio
Размер файла                             : 19,9 Мбайт
Продолжительность                        : 8 м. 31 с.
Режим общего битрейта                    : Постоянный
Общий поток                              : 320 Кбит/сек
Альбом                                   : Greatest Jazz Concert in the World (Disc 2)
Часть/Положение                          : 2
Часть/Всего                              : 3
Трек                                     : Very Tenor
Трек/Положение                           : 10
Трек/Всего                               : 12
Исполнитель                              : Duke Ellington Orchestra
Композитор                               : Duke Ellington
Кодирование произвёл                     : LAME 3.98 (Max 0.9.1)
Жанр                                     : Jazz
Дата записи                              : 1967
Дата кодирования                         : UTC 2011-04- 0T13:43:32
Дата пометки                             : UTC 2011-04- 0T13:43:32
Библиотека кодирования                   : LAME3.98
Обложка                                  : Yes
MIME-тип обложки                         : image/png
Аудио
Формат                                   : MPEG Audio
Версия формата                           : Version 1
Профиль формата                          : Layer 3
Режим                                    : Joint stereo
Расширение режима                        : MS Stereo
Продолжительность                        : 8 м. 32 с.
Вид битрейта                             : Постоянный
Битрейт                                  : 320 Кбит/сек
Каналы                                   : 2 канала
Частота                                  : 44,1 КГц
Метод сжатия                             : С потерями
Размер потока                            : 19,5 Мбайт (98%)
Библиотека кодирования                   : LAME3.98
Настройки программы                      : -m j -V 4 -q 2 -lowpass 20.5
Общее
Полное имя                               : C:\Users\VA - The Greatest Jazz Concert in the World (1990)\CD2\2-11 Onions (Wild Onions).mp3
Формат                                   : MPEG Audio
Размер файла                             : 7,12 Мбайт
Продолжительность                        : 2 м. 55 с.
Режим общего битрейта                    : Постоянный
Общий поток                              : 320 Кбит/сек
Альбом                                   : Greatest Jazz Concert in the World (Disc 2)
Часть/Положение                          : 2
Часть/Всего                              : 3
Трек                                     : Onions (Wild Onions)
Трек/Положение                           : 11
Трек/Всего                               : 12
Исполнитель                              : Duke Ellington Orchestra
Композитор                               : Duke Ellington
Кодирование произвёл                     : LAME 3.98 (Max 0.9.1)
Жанр                                     : Jazz
Дата записи                              : 1967
Дата кодирования                         : UTC 2011-04- 0T13:43:03
Дата пометки                             : UTC 2011-04- 0T13:43:03
Библиотека кодирования                   : LAME3.98
Обложка                                  : Yes
MIME-тип обложки                         : image/png
Аудио
Формат                                   : MPEG Audio
Версия формата                           : Version 1
Профиль формата                          : Layer 3
Режим                                    : Joint stereo
Расширение режима                        : MS Stereo
Продолжительность                        : 2 м. 55 с.
Вид битрейта                             : Постоянный
Битрейт                                  : 320 Кбит/сек
Каналы                                   : 2 канала
Частота                                  : 44,1 КГц
Метод сжатия                             : С потерями
Размер потока                            : 6,70 Мбайт (94%)
Библиотека кодирования                   : LAME3.98
Настройки программы                      : -m j -V 4 -q 2 -lowpass 20.5
Общее
Полное имя                               : C:\Users\VA - The Greatest Jazz Concert in the World (1990)\CD2\2-12 Take The _A_ Train.mp3
Формат                                   : MPEG Audio
Размер файла                             : 13,0 Мбайт
Продолжительность                        : 5 м. 29 с.
Режим общего битрейта                    : Постоянный
Общий поток                              : 320 Кбит/сек
Альбом                                   : Greatest Jazz Concert in the World (Disc 2)
Часть/Положение                          : 2
Часть/Всего                              : 3
Трек                                     : Take The "A" Train
Трек/Положение                           : 12
Трек/Всего                               : 12
Исполнитель                              : Duke Ellington Orchestra
Композитор                               : Billy Strayhorn
Кодирование произвёл                     : LAME 3.98 (Max 0.9.1)
Жанр                                     : Jazz
Дата записи                              : 1967
Дата кодирования                         : UTC 2011-04- 0T13:45:21
Дата пометки                             : UTC 2011-04- 0T13:45:21
Библиотека кодирования                   : LAME3.98
Обложка                                  : Yes
MIME-тип обложки                         : image/png
Аудио
Формат                                   : MPEG Audio
Версия формата                           : Version 1
Профиль формата                          : Layer 3
Режим                                    : Joint stereo
Расширение режима                        : MS Stereo
Продолжительность                        : 5 м. 29 с.
Вид битрейта                             : Постоянный
Битрейт                                  : 320 Кбит/сек
Каналы                                   : 2 канала
Частота                                  : 44,1 КГц
Метод сжатия                             : С потерями
Размер потока                            : 12,6 Мбайт (97%)
Библиотека кодирования                   : LAME3.98
Настройки программы                      : -m j -V 4 -q 2 -lowpass 20.5
Общее
Полное имя                               : C:\Users\VA - The Greatest Jazz Concert in the World (1990)\CD2\back.jpg
Формат                                   : JPEG
Размер файла                             : 144 Кбайт
Изображения
Формат                                   : JPEG
Ширина                                   : 620 пикселей
Высота                                   : 480 пикселей
Цветовое пространство                    : YUV
Субдискретизация насыщенности            : 4:2:0
Битовая глубина                          : 8 бит
Метод сжатия                             : С потерями
Размер потока                            : 144 Кбайт (100%)
Общее
Полное имя                               : C:\Users\VA - The Greatest Jazz Concert in the World (1990)\CD2\Cover.jpg
Формат                                   : JPEG
Размер файла                             : 118 Кбайт
Изображения
Формат                                   : JPEG
Ширина                                   : 467 пикселей
Высота                                   : 465 пикселей
Цветовое пространство                    : YUV
Субдискретизация насыщенности            : 4:2:0
Битовая глубина                          : 8 бит
Метод сжатия                             : С потерями
Размер потока                            : 118 Кбайт (100%)
Общее
Полное имя                               : C:\Users\VA - The Greatest Jazz Concert in the World (1990)\CD2\Thumbs.db
Размер файла                             : 44,0 Кбайт
Общее
Полное имя                               : C:\Users\VA - The Greatest Jazz Concert in the World (1990)\CD3\3-01 Satin Doll.mp3
Формат                                   : MPEG Audio
Размер файла                             : 12,8 Мбайт
Продолжительность                        : 5 м. 25 с.
Режим общего битрейта                    : Постоянный
Общий поток                              : 320 Кбит/сек
Альбом                                   : Greatest Jazz Concert in the World (Disc 3)
Часть/Положение                          : 3
Часть/Всего                              : 3
Трек                                     : Satin Doll
Трек/Положение                           : 1
Трек/Всего                               : 15
Компиляция                               : Yes
Исполнитель                              : Duke Ellington Orchestra
Композитор                               : Duke Ellington, Johnny Mercer, Billy Strayhorn
Кодирование произвёл                     : LAME 3.98 (Max 0.9.1)
Жанр                                     : Jazz
Дата записи                              : 1967
Дата кодирования                         : UTC 2011-04- 0T13:16:11
Дата пометки                             : UTC 2011-04- 0T13:16:11
Библиотека кодирования                   : LAME3.98
Обложка                                  : Yes
MIME-тип обложки                         : image/png
Аудио
Формат                                   : MPEG Audio
Версия формата                           : Version 1
Профиль формата                          : Layer 3
Режим                                    : Joint stereo
Расширение режима                        : MS Stereo
Продолжительность                        : 5 м. 25 с.
Вид битрейта                             : Постоянный
Битрейт                                  : 320 Кбит/сек
Каналы                                   : 2 канала
Частота                                  : 44,1 КГц
Метод сжатия                             : С потерями
Размер потока                            : 12,4 Мбайт (97%)
Библиотека кодирования                   : LAME3.98
Настройки программы                      : -m j -V 4 -q 2 -lowpass 20.5
Общее
Полное имя                               : C:\Users\VA - The Greatest Jazz Concert in the World (1990)\CD3\3-02 Tootie for Cootie.mp3
Формат                                   : MPEG Audio
Размер файла                             : 15,9 Мбайт
Продолжительность                        : 6 м. 45 с.
Режим общего битрейта                    : Постоянный
Общий поток                              : 320 Кбит/сек
Альбом                                   : Greatest Jazz Concert in the World (Disc 3)
Часть/Положение                          : 3
Часть/Всего                              : 3
Трек                                     : Tootie for Cootie
Трек/Положение                           : 2
Трек/Всего                               : 15
Компиляция                               : Yes
Исполнитель                              : Duke Ellington Orchestra
Композитор                               : Duke Ellington, Jimmy Hamilton
Кодирование произвёл                     : LAME 3.98 (Max 0.9.1)
Жанр                                     : Jazz
Дата записи                              : 1967
Дата кодирования                         : UTC 2011-04- 0T13:17:26
Дата пометки                             : UTC 2011-04- 0T13:17:26
Библиотека кодирования                   : LAME3.98
Обложка                                  : Yes
MIME-тип обложки                         : image/png
Аудио
Формат                                   : MPEG Audio
Версия формата                           : Version 1
Профиль формата                          : Layer 3
Режим                                    : Joint stereo
Расширение режима                        : MS Stereo
Продолжительность                        : 6 м. 45 с.
Вид битрейта                             : Постоянный
Битрейт                                  : 320 Кбит/сек
Каналы                                   : 2 канала
Частота                                  : 44,1 КГц
Метод сжатия                             : С потерями
Размер потока                            : 15,5 Мбайт (97%)
Библиотека кодирования                   : LAME3.98
Настройки программы                      : -m j -V 4 -q 2 -lowpass 20.5
Общее
Полное имя                               : C:\Users\VA - The Greatest Jazz Concert in the World (1990)\CD3\3-03 Up Jump.mp3
Формат                                   : MPEG Audio
Размер файла                             : 8,76 Мбайт
Продолжительность                        : 3 м. 38 с.
Режим общего битрейта                    : Постоянный
Общий поток                              : 320 Кбит/сек
Альбом                                   : Greatest Jazz Concert in the World (Disc 3)
Часть/Положение                          : 3
Часть/Всего                              : 3
Трек                                     : Up Jump
Трек/Положение                           : 3
Трек/Всего                               : 15
Компиляция                               : Yes
Исполнитель                              : Duke Ellington Orchestra
Кодирование произвёл                     : LAME 3.98 (Max 0.9.1)
Жанр                                     : Jazz
Дата записи                              : 1967
Дата кодирования                         : UTC 2011-04- 0T13:18:00
Дата пометки                             : UTC 2011-04- 0T13:18:00
Библиотека кодирования                   : LAME3.98
Обложка                                  : Yes
MIME-тип обложки                         : image/png
Аудио
Формат                                   : MPEG Audio
Версия формата                           : Version 1
Профиль формата                          : Layer 3
Режим                                    : Joint stereo
Расширение режима                        : MS Stereo
Продолжительность                        : 3 м. 38 с.
Вид битрейта                             : Постоянный
Битрейт                                  : 320 Кбит/сек
Каналы                                   : 2 канала
Частота                                  : 44,1 КГц
Метод сжатия                             : С потерями
Размер потока                            : 8,34 Мбайт (95%)
Библиотека кодирования                   : LAME3.98
Настройки программы                      : -m j -V 4 -q 2 -lowpass 20.5
Общее
Полное имя                               : C:\Users\VA - The Greatest Jazz Concert in the World (1990)\CD3\3-04 Prelude to a Kiss.mp3
Формат                                   : MPEG Audio
Размер файла                             : 11,1 Мбайт
Продолжительность                        : 4 м. 39 с.
Режим общего битрейта                    : Постоянный
Общий поток                              : 320 Кбит/сек
Альбом                                   : Greatest Jazz Concert in the World (Disc 3)
Часть/Положение                          : 3
Часть/Всего                              : 3
Трек                                     : Prelude to a Kiss
Трек/Положение                           : 4
Трек/Всего                               : 15
Компиляция                               : Yes
Исполнитель                              : Duke Ellington Orchestra
Композитор                               : Duke Ellington, Irving Gordon, Irving Mills
Кодирование произвёл                     : LAME 3.98 (Max 0.9.1)
Жанр                                     : Jazz
Дата записи                              : 1967
Дата кодирования                         : UTC 2011-04- 0T13:19:09
Дата пометки                             : UTC 2011-04- 0T13:19:09
Библиотека кодирования                   : LAME3.98
Обложка                                  : Yes
MIME-тип обложки                         : image/png
Аудио
Формат                                   : MPEG Audio
Версия формата                           : Version 1
Профиль формата                          : Layer 3
Режим                                    : Joint stereo
Расширение режима                        : MS Stereo
Продолжительность                        : 4 м. 39 с.
Вид битрейта                             : Постоянный
Битрейт                                  : 320 Кбит/сек
Каналы                                   : 2 канала
Частота                                  : 44,1 КГц
Метод сжатия                             : С потерями
Размер потока                            : 10,7 Мбайт (96%)
Библиотека кодирования                   : LAME3.98
Настройки программы                      : -m j -V 4 -q 2 -lowpass 20.5
Общее
Полное имя                               : C:\Users\VA - The Greatest Jazz Concert in the World (1990)\CD3\3-05 Mood Indigo _ I Got It Bad (And That Ain't Good).mp3
Формат                                   : MPEG Audio
Размер файла                             : 14,5 Мбайт
Продолжительность                        : 6 м. 8 с.
Режим общего битрейта                    : Постоянный
Общий поток                              : 320 Кбит/сек
Альбом                                   : Greatest Jazz Concert in the World (Disc 3)
Часть/Положение                          : 3
Часть/Всего                              : 3
Трек                                     : Mood Indigo / I Got It Bad (And That Ain't Good)
Трек/Положение                           : 5
Трек/Всего                               : 15
Компиляция                               : Yes
Исполнитель                              : Duke Ellington Orchestra
Кодирование произвёл                     : LAME 3.98 (Max 0.9.1)
Жанр                                     : Jazz
Дата записи                              : 1967
Дата кодирования                         : UTC 2011-04- 0T13:20:17
Дата пометки                             : UTC 2011-04- 0T13:20:17
Библиотека кодирования                   : LAME3.98
Обложка                                  : Yes
MIME-тип обложки                         : image/png
Аудио
Формат                                   : MPEG Audio
Версия формата                           : Version 1
Профиль формата                          : Layer 3
Режим                                    : Joint stereo
Расширение режима                        : MS Stereo
Продолжительность                        : 6 м. 9 с.
Вид битрейта                             : Постоянный
Битрейт                                  : 320 Кбит/сек
Каналы                                   : 2 канала
Частота                                  : 44,1 КГц
Метод сжатия                             : С потерями
Размер потока                            : 14,1 Мбайт (97%)
Библиотека кодирования                   : LAME3.98
Настройки программы                      : -m j -V 4 -q 2 -lowpass 20.5
Общее
Полное имя                               : C:\Users\VA - The Greatest Jazz Concert in the World (1990)\CD3\3-06 Things Ain't What They Used To Be.mp3
Формат                                   : MPEG Audio
Размер файла                             : 10,8 Мбайт
Продолжительность                        : 4 м. 31 с.
Режим общего битрейта                    : Постоянный
Общий поток                              : 320 Кбит/сек
Альбом                                   : Greatest Jazz Concert in the World (Disc 3)
Часть/Положение                          : 3
Часть/Всего                              : 3
Трек                                     : Things Ain't What They Used To Be
Трек/Положение                           : 6
Трек/Всего                               : 15
Компиляция                               : Yes
Исполнитель                              : Duke Ellington Orchestra
Композитор                               : Mercer Kennedy Ellington, Ted Persons
Кодирование произвёл                     : LAME 3.98 (Max 0.9.1)
Жанр                                     : Jazz
Дата записи                              : 1967
Дата кодирования                         : UTC 2011-04- 0T13:21:13
Дата пометки                             : UTC 2011-04- 0T13:21:13
Библиотека кодирования                   : LAME3.98
Обложка                                  : Yes
MIME-тип обложки                         : image/png
Аудио
Формат                                   : MPEG Audio
Версия формата                           : Version 1
Профиль формата                          : Layer 3
Режим                                    : Joint stereo
Расширение режима                        : MS Stereo
Продолжительность                        : 4 м. 32 с.
Вид битрейта                             : Постоянный
Битрейт                                  : 320 Кбит/сек
Каналы                                   : 2 канала
Частота                                  : 44,1 КГц
Метод сжатия                             : С потерями
Размер потока                            : 10,4 Мбайт (96%)
Библиотека кодирования                   : LAME3.98
Настройки программы                      : -m j -V 4 -q 2 -lowpass 20.5
Общее
Полное имя                               : C:\Users\VA - The Greatest Jazz Concert in the World (1990)\CD3\3-07 Don't Be That Way.mp3
Формат                                   : MPEG Audio
Размер файла                             : 9,92 Мбайт
Продолжительность                        : 4 м. 9 с.
Режим общего битрейта                    : Постоянный
Общий поток                              : 320 Кбит/сек
Альбом                                   : Greatest Jazz Concert in the World (Disc 3)
Часть/Положение                          : 3
Часть/Всего                              : 3
Трек                                     : Don't Be That Way
Трек/Положение                           : 7
Трек/Всего                               : 15
Компиляция                               : Yes
Исполнитель                              : Ella Fitzgerald, Duke Ellington Orchestra, Jimmy Jones Trio
Композитор                               : Benny Goodman, Mitchell Parish, Edgar Sampson
Кодирование произвёл                     : LAME 3.98 (Max 0.9.1)
Жанр                                     : Jazz
Дата записи                              : 1967
Дата кодирования                         : UTC 2011-04- 0T13:22:08
Дата пометки                             : UTC 2011-04- 0T13:22:08
Библиотека кодирования                   : LAME3.98
Обложка                                  : Yes
MIME-тип обложки                         : image/png
Аудио
Формат                                   : MPEG Audio
Версия формата                           : Version 1
Профиль формата                          : Layer 3
Режим                                    : Joint stereo
Расширение режима                        : MS Stereo
Продолжительность                        : 4 м. 9 с.
Вид битрейта                             : Постоянный
Битрейт                                  : 320 Кбит/сек
Каналы                                   : 2 канала
Частота                                  : 44,1 КГц
Метод сжатия                             : С потерями
Размер потока                            : 9,50 Мбайт (96%)
Библиотека кодирования                   : LAME3.98
Настройки программы                      : -m j -V 4 -q 2 -lowpass 20.5
Общее
Полное имя                               : C:\Users\VA - The Greatest Jazz Concert in the World (1990)\CD3\3-08 You've Changed.mp3
Формат                                   : MPEG Audio
Размер файла                             : 10,0 Мбайт
Продолжительность                        : 4 м. 12 с.
Режим общего битрейта                    : Постоянный
Общий поток                              : 320 Кбит/сек
Альбом                                   : Greatest Jazz Concert in the World (Disc 3)
Часть/Положение                          : 3
Часть/Всего                              : 3
Трек                                     : You've Changed
Трек/Положение                           : 8
Трек/Всего                               : 15
Компиляция                               : Yes
Исполнитель                              : Ella Fitzgerald, Duke Ellington Orchestra, Jimmy Jones Trio
Композитор                               : Carl Fischer, Bill Carey
Кодирование произвёл                     : LAME 3.98 (Max 0.9.1)
Жанр                                     : Jazz
Дата записи                              : 1967
Дата кодирования                         : UTC 2011-04- 0T13:22:58
Дата пометки                             : UTC 2011-04- 0T13:22:58
Библиотека кодирования                   : LAME3.98
Обложка                                  : Yes
MIME-тип обложки                         : image/png
Аудио
Формат                                   : MPEG Audio
Версия формата                           : Version 1
Профиль формата                          : Layer 3
Режим                                    : Joint stereo
Расширение режима                        : MS Stereo
Продолжительность                        : 4 м. 12 с.
Вид битрейта                             : Постоянный
Битрейт                                  : 320 Кбит/сек
Каналы                                   : 2 канала
Частота                                  : 44,1 КГц
Метод сжатия                             : С потерями
Размер потока                            : 9,63 Мбайт (96%)
Библиотека кодирования                   : LAME3.98
Настройки программы                      : -m j -V 4 -q 2 -lowpass 20.5
Общее
Полное имя                               : C:\Users\VA - The Greatest Jazz Concert in the World (1990)\CD3\3-09 Let's Do It.mp3
Формат                                   : MPEG Audio
Размер файла                             : 11,0 Мбайт
Продолжительность                        : 4 м. 38 с.
Режим общего битрейта                    : Постоянный
Общий поток                              : 320 Кбит/сек
Альбом                                   : Greatest Jazz Concert in the World (Disc 3)
Часть/Положение                          : 3
Часть/Всего                              : 3
Трек                                     : Let's Do It
Трек/Положение                           : 9
Трек/Всего                               : 15
Компиляция                               : Yes
Исполнитель                              : Ella Fitzgerald, Duke Ellington Orchestra, Jimmy Jones Trio
Композитор                               : Cole Porter
Кодирование произвёл                     : LAME 3.98 (Max 0.9.1)
Жанр                                     : Jazz
Дата записи                              : 1967
Дата кодирования                         : UTC 2011-04- 0T13:24:11
Дата пометки                             : UTC 2011-04- 0T13:24:11
Библиотека кодирования                   : LAME3.98
Обложка                                  : Yes
MIME-тип обложки                         : image/png
Аудио
Формат                                   : MPEG Audio
Версия формата                           : Version 1
Профиль формата                          : Layer 3
Режим                                    : Joint stereo
Расширение режима                        : MS Stereo
Продолжительность                        : 4 м. 39 с.
Вид битрейта                             : Постоянный
Битрейт                                  : 320 Кбит/сек
Каналы                                   : 2 канала
Частота                                  : 44,1 КГц
Метод сжатия                             : С потерями
Размер потока                            : 10,6 Мбайт (96%)
Библиотека кодирования                   : LAME3.98
Настройки программы                      : -m j -V 4 -q 2 -lowpass 20.5
Общее
Полное имя                               : C:\Users\VA - The Greatest Jazz Concert in the World (1990)\CD3\3-10 On the Sunny Side of the Street.mp3
Формат                                   : MPEG Audio
Размер файла                             : 5,55 Мбайт
Продолжительность                        : 2 м. 14 с.
Режим общего битрейта                    : Постоянный
Общий поток                              : 320 Кбит/сек
Альбом                                   : Greatest Jazz Concert in the World (Disc 3)
Часть/Положение                          : 3
Часть/Всего                              : 3
Трек                                     : On the Sunny Side of the Street
Трек/Положение                           : 10
Трек/Всего                               : 15
Компиляция                               : Yes
Исполнитель                              : Ella Fitzgerald, Duke Ellington Orchestra, Jimmy Jones Trio
Композитор                               : Dorothy Fields, Jimmy McHugh
Кодирование произвёл                     : LAME 3.98 (Max 0.9.1)
Жанр                                     : Jazz
Дата записи                              : 1967
Дата кодирования                         : UTC 2011-04- 0T13:24:28
Дата пометки                             : UTC 2011-04- 0T13:24:28
Библиотека кодирования                   : LAME3.98
Обложка                                  : Yes
MIME-тип обложки                         : image/png
Аудио
Формат                                   : MPEG Audio
Версия формата                           : Version 1
Профиль формата                          : Layer 3
Режим                                    : Joint stereo
Расширение режима                        : MS Stereo
Продолжительность                        : 2 м. 14 с.
Вид битрейта                             : Постоянный
Битрейт                                  : 320 Кбит/сек
Каналы                                   : 2 канала
Частота                                  : 44,1 КГц
Метод сжатия                             : С потерями
Размер потока                            : 5,14 Мбайт (93%)
Библиотека кодирования                   : LAME3.98
Настройки программы                      : -m j -V 4 -q 2 -lowpass 20.5
Общее
Полное имя                               : C:\Users\VA - The Greatest Jazz Concert in the World (1990)\CD3\3-11 It's Only a Paper Moon.mp3
Формат                                   : MPEG Audio
Размер файла                             : 6,18 Мбайт
Продолжительность                        : 2 м. 31 с.
Режим общего битрейта                    : Постоянный
Общий поток                              : 320 Кбит/сек
Альбом                                   : Greatest Jazz Concert in the World (Disc 3)
Часть/Положение                          : 3
Часть/Всего                              : 3
Трек                                     : It's Only a Paper Moon
Трек/Положение                           : 11
Трек/Всего                               : 15
Компиляция                               : Yes
Исполнитель                              : Ella Fitzgerald & The Jimmy Jones Trio
Композитор                               : Harold Arlen, E. Y. "Yip" Harburg, Billy Rose
Кодирование произвёл                     : LAME 3.98 (Max 0.9.1)
Жанр                                     : Jazz
Дата записи                              : 1967
Дата кодирования                         : UTC 2011-04- 0T13:25:33
Дата пометки                             : UTC 2011-04- 0T13:25:33
Библиотека кодирования                   : LAME3.98
Обложка                                  : Yes
MIME-тип обложки                         : image/png
Аудио
Формат                                   : MPEG Audio
Версия формата                           : Version 1
Профиль формата                          : Layer 3
Режим                                    : Joint stereo
Расширение режима                        : MS Stereo
Продолжительность                        : 2 м. 31 с.
Вид битрейта                             : Постоянный
Битрейт                                  : 320 Кбит/сек
Каналы                                   : 2 канала
Частота                                  : 44,1 КГц
Метод сжатия                             : С потерями
Размер потока                            : 5,76 Мбайт (93%)
Библиотека кодирования                   : LAME3.98
Настройки программы                      : -m j -V 4 -q 2 -lowpass 20.5
Общее
Полное имя                               : C:\Users\VA - The Greatest Jazz Concert in the World (1990)\CD3\3-12 Day Dream.mp3
Формат                                   : MPEG Audio
Размер файла                             : 11,4 Мбайт
Продолжительность                        : 4 м. 49 с.
Режим общего битрейта                    : Постоянный
Общий поток                              : 320 Кбит/сек
Альбом                                   : Greatest Jazz Concert in the World (Disc 3)
Часть/Положение                          : 3
Часть/Всего                              : 3
Трек                                     : Day Dream
Трек/Положение                           : 12
Трек/Всего                               : 15
Компиляция                               : Yes
Исполнитель                              : Ella Fitzgerald & The Jimmy Jones Trio
Композитор                               : Duke Ellington, Billy Strayhorn
Кодирование произвёл                     : LAME 3.98 (Max 0.9.1)
Жанр                                     : Jazz
Дата записи                              : 1967
Дата кодирования                         : UTC 2011-04- 0T13:26:37
Дата пометки                             : UTC 2011-04- 0T13:26:37
Библиотека кодирования                   : LAME3.98
Обложка                                  : Yes
MIME-тип обложки                         : image/png
Аудио
Формат                                   : MPEG Audio
Версия формата                           : Version 1
Профиль формата                          : Layer 3
Режим                                    : Joint stereo
Расширение режима                        : MS Stereo
Продолжительность                        : 4 м. 49 с.
Вид битрейта                             : Постоянный
Битрейт                                  : 320 Кбит/сек
Каналы                                   : 2 канала
Частота                                  : 44,1 КГц
Метод сжатия                             : С потерями
Размер потока                            : 11,0 Мбайт (96%)
Библиотека кодирования                   : LAME3.98
Настройки программы                      : -m j -V 4 -q 2 -lowpass 20.5
Общее
Полное имя                               : C:\Users\VA - The Greatest Jazz Concert in the World (1990)\CD3\3-13 If I Could Be With You.mp3
Формат                                   : MPEG Audio
Размер файла                             : 7,98 Мбайт
Продолжительность                        : 3 м. 18 с.
Режим общего битрейта                    : Постоянный
Общий поток                              : 320 Кбит/сек
Альбом                                   : Greatest Jazz Concert in the World (Disc 3)
Часть/Положение                          : 3
Часть/Всего                              : 3
Трек                                     : If I Could Be With You
Трек/Положение                           : 13
Трек/Всего                               : 15
Компиляция                               : Yes
Исполнитель                              : Ella Fitzgerald & The Jimmy Jones Trio
Композитор                               : Henry Creamer, Jimmy Johnson
Кодирование произвёл                     : LAME 3.98 (Max 0.9.1)
Жанр                                     : Jazz
Дата записи                              : 1967
Дата кодирования                         : UTC 2011-04- 0T13:26:58
Дата пометки                             : UTC 2011-04- 0T13:26:58
Библиотека кодирования                   : LAME3.98
Обложка                                  : Yes
MIME-тип обложки                         : image/png
Аудио
Формат                                   : MPEG Audio
Версия формата                           : Version 1
Профиль формата                          : Layer 3
Режим                                    : Joint stereo
Расширение режима                        : MS Stereo
Продолжительность                        : 3 м. 18 с.
Вид битрейта                             : Постоянный
Битрейт                                  : 320 Кбит/сек
Каналы                                   : 2 канала
Частота                                  : 44,1 КГц
Метод сжатия                             : С потерями
Размер потока                            : 7,57 Мбайт (95%)
Библиотека кодирования                   : LAME3.98
Настройки программы                      : -m j -V 4 -q 2 -lowpass 20.5
Общее
Полное имя                               : C:\Users\VA - The Greatest Jazz Concert in the World (1990)\CD3\3-14 Between the Devil and the Deep Blue Sea.mp3
Формат                                   : MPEG Audio
Размер файла                             : 9,21 Мбайт
Продолжительность                        : 3 м. 50 с.
Режим общего битрейта                    : Постоянный
Общий поток                              : 320 Кбит/сек
Альбом                                   : Greatest Jazz Concert in the World (Disc 3)
Часть/Положение                          : 3
Часть/Всего                              : 3
Трек                                     : Between the Devil and the Deep Blue Sea
Трек/Положение                           : 14
Трек/Всего                               : 15
Компиляция                               : Yes
Исполнитель                              : Ella Fitzgerald & The Jimmy Jones Trio
Композитор                               : Harold Arlen, Ted Koehler
Кодирование произвёл                     : LAME 3.98 (Max 0.9.1)
Жанр                                     : Jazz
Дата записи                              : 1967
Дата кодирования                         : UTC 2011-04- 0T13:28:05
Дата пометки                             : UTC 2011-04- 0T13:28:05
Библиотека кодирования                   : LAME3.98
Обложка                                  : Yes
MIME-тип обложки                         : image/png
Аудио
Формат                                   : MPEG Audio
Версия формата                           : Version 1
Профиль формата                          : Layer 3
Режим                                    : Joint stereo
Расширение режима                        : MS Stereo
Продолжительность                        : 3 м. 50 с.
Вид битрейта                             : Постоянный
Битрейт                                  : 320 Кбит/сек
Каналы                                   : 2 канала
Частота                                  : 44,1 КГц
Метод сжатия                             : С потерями
Размер потока                            : 8,80 Мбайт (96%)
Библиотека кодирования                   : LAME3.98
Настройки программы                      : -m j -V 4 -q 2 -lowpass 20.5
Общее
Полное имя                               : C:\Users\VA - The Greatest Jazz Concert in the World (1990)\CD3\3-15 Cotton Tail.mp3
Формат                                   : MPEG Audio
Размер файла                             : 13,0 Мбайт
Продолжительность                        : 5 м. 29 с.
Режим общего битрейта                    : Постоянный
Общий поток                              : 320 Кбит/сек
Альбом                                   : Greatest Jazz Concert in the World (Disc 3)
Часть/Положение                          : 3
Часть/Всего                              : 3
Трек                                     : Cotton Tail
Трек/Положение                           : 15
Трек/Всего                               : 15
Компиляция                               : Yes
Исполнитель                              : Ella Fitzgerald, Duke Ellington Orchestra, Jimmy Jones Trio
Композитор                               : Duke Ellington
Кодирование произвёл                     : LAME 3.98 (Max 0.9.1)
Жанр                                     : Jazz
Дата записи                              : 1967
Дата кодирования                         : UTC 2011-04- 0T13:29:14
Дата пометки                             : UTC 2011-04- 0T13:29:14
Библиотека кодирования                   : LAME3.98
Обложка                                  : Yes
MIME-тип обложки                         : image/png
Аудио
Формат                                   : MPEG Audio
Версия формата                           : Version 1
Профиль формата                          : Layer 3
Режим                                    : Joint stereo
Расширение режима                        : MS Stereo
Продолжительность                        : 5 м. 30 с.
Вид битрейта                             : Постоянный
Битрейт                                  : 320 Кбит/сек
Каналы                                   : 2 канала
Частота                                  : 44,1 КГц
Метод сжатия                             : С потерями
Размер потока                            : 12,6 Мбайт (97%)
Библиотека кодирования                   : LAME3.98
Настройки программы                      : -m j -V 4 -q 2 -lowpass 20.5
Общее
Полное имя                               : C:\Users\VA - The Greatest Jazz Concert in the World (1990)\FOLDER.jpg
Формат                                   : JPEG
Размер файла                             : 115 Кбайт
Изображения
Формат                                   : JPEG
Ширина                                   : 500 пикселей
Высота                                   : 497 пикселей
Цветовое пространство                    : YUV
Субдискретизация насыщенности            : 4:2:0
Битовая глубина                          : 8 бит
Метод сжатия                             : С потерями
Размер потока                            : 115 Кбайт (100%)
Общее
Полное имя                               : C:\Users\VA - The Greatest Jazz Concert in the World (1990)\Thumbs.db
Размер файла                             : 26,5 Кбайт
Приятного прослушивания!
Время раздачи: до первых 10-ти сидов
Other forum [Profile] [PM]
Display posts from previous:    
Reply to topic

The time now is: Today 23:55

All times are GMT + 3 Hours



You cannot post new topics in this forum
You cannot reply to topics in this forum
You cannot edit your posts in this forum
You cannot delete your posts in this forum
You cannot vote in polls in this forum
You cannot attach files in this forum
You cannot download files in this forum