Today is a free download without charge Download

Агент особого назначения 4 [1-2 серии из 16] (2013) SATRip [Обновляемая]

Reply to topic
 
Author
Message

UndegraundMen ®

Longevity: 8 years 9 months

Posts: 25145

Торрент-статистика

Post 23-Mar-2013 13:29

[Quote]

Агент особого назначения-4 [1-2 серии из 16] (2013) SATRip [Обновляемая]- Русское название: Агент особого назначения-4
Выпущено: Россия
Год выпуска: 2013
Жанр: Боевик, Криминал, Детектив
Перевод: Оригинал (Русский)
Субтитры: Отсутствуют

Дата российской премьеры: 23 марта 2013
Режиссер: Андрей Элинсон
Актеры: Сергей Перегудов, Владимир Матвеев, Михаил Трясоруков, Дмитрий Аверин, Ольга Павловец, Янина Соколовская, Лев Елисеев, Юрий Ковалёв, Роман Кочержевский, Зоя Буряк, Евгения Игумнова, Олег Алмазов, Елена Радевич, Семен Сытник, Тихон Жизневский, Владимир Кебин, Александр Поляков, Константин Анисимов, Владимир Постников, Сергей Мигицко, Сергей Кушаков, Валентин Цзин, Николай Горшков, Игорь Волков, Юрий Евдокимов, Александр Куйкка, Денис Зайцев, Валерий Чебурканов, Антон Сычев, Антон Юрьев, Владислав Резник
Описание фильма:
Бесчисленные подвиги Барабанова на благо отчизны, наконец, вознаграждены. Ему решено предоставить собственную комфортабельную квартиру, правда, ведомственную, но из родимой коммуналки он перебирается туда с восторгом. Одно «но» царапает душу специального агента: в своей старой квартире ему приходится оставить Шурку, соседку, с которой они прожили рядом столько лет. Но служба, есть служба..
Продолжительность: 2 х ~ 00:44:00 серия
Качество видео: SATRip
Видеокодек: Xvid
Битрейт видео: ~1801 Kbit/s
Размер кадра: 720 x 400
Аудиокодек: MP3, 2.0
Битрейт аудио: 128 Kbit/sВнимание! Раздача ведётся путём добавления новых серий

Внимание! Раздача ведётся путём добавления новых серий. Описание обновления торрента.

Внимание! Раздача ведётся путём добавления новых серий; при каждом добавлении создётся новый торрент. Чтобы начать докачку новой серии, пользователям необходимо сделать следующее:
(1) остановить скачивание,
(2) удалить старый торрент у себя из клиента (старые серии удалять не надо),
(3) скачать новый торрент и запустить его у себя в клиенте вместо старого, при этом указать клиенту путь в старую папку куда и должно происходить скачивание новых серий.
Ваш клиент при этом должен произвести хеширование (проверку) старой папки (если не производит сам - помогите ему сделать это), и будет докачивать только те серии которых у вас ещё нет. Старые серии при этом не удаляются, а продолжают раздаваться!
Eсли вы уже удалили старые серии, то предотвратить повторную закачку старых серий можно, отжав галочку в соответсвующих местах при запуске нового торрента. По возможности, желательно не удалять старые серии как можно дольше чтобы релизёр не столько продолжал раздавать старые серии, а смог сконцентрироваться на новых.

MediaInfo

Общее
Полное имя : D:\Торренты\Агент особого назначения 4.2013.SATRip\Агент особого назначения 4. 01.avi
Формат : AVI
Формат/Информация : Audio Video Interleave
Размер файла : 624 Мбайт
Продолжительность : 44 м.
Общий поток : 1939 Кбит/сек
Библиотека кодирования : VirtualDub build 32706/release
Видео
Идентификатор : 0
Формат : MPEG-4 Visual
Профиль формата : Advanced [email protected]
Параметр BVOP формата : 2
Параметр QPel формата : Нет
Параметр GMC формата : Без точки перехода
Параметр матрицы формата : Default (MPEG)
Идентификатор кодека : XVID
Идентификатор кодека/Подсказка : XviD
Продолжительность : 44 м.
Битрейт : 1801 Кбит/сек
Ширина : 720 пикс.
Высота : 400 пикс.
Соотношение сторон : 16:9
Частота кадров : 25,000 кадр/сек
Цветовое пространство : YUV
Подвыборка цветности : 4:2:0
Битовая глубина : 8 бит
Тип развёртки : Прогрессивная
Метод сжатия : С потерями
Бит/(Пиксели*Кадры) : 0.250
Размер потока : 579 Мбайт (93%)
Библиотека кодирования : XviD 1.2.1 (UTC 2008-12-04)
Аудио
Идентификатор : 1
Формат : MPEG Audio
Версия формата : Version 1
Профиль формата : Layer 3
Режим : Joint stereo
Расширение режима : MS Stereo
Идентификатор кодека : 55
Идентификатор кодека/Подсказка : MP3
Продолжительность : 44 м.
Вид битрейта : Постоянный
Битрейт : 128 Кбит/сек
Каналы : 2 канала
Частота : 48,0 КГц
Метод сжатия : С потерями
Размер потока : 41,2 Мбайт (7%)
Выравнивание : Разделение по промежуткам
Продолжительность промежутка : 40 мс. (1,00 видеокадр)
Время предзагрузки промежутка : 500 ms
Скриншоты:
           
Other forum [Profile] [PM]
Display posts from previous:    
Reply to topic

The time now is: Today 23:10

All times are GMT + 3 Hours



You cannot post new topics in this forum
You cannot reply to topics in this forum
You cannot edit your posts in this forum
You cannot delete your posts in this forum
You cannot vote in polls in this forum
You cannot attach files in this forum
You cannot download files in this forum