Today is a free download without charge Download

ИНТЕРНЫ / (Сезон 8 / Серия 150 ) / (Максим Пежемский, Заур Болотаев, Милан Килибарда, Евгений Невский, Радда Новикова) [2013, Комедия, DVB]

Reply to topic
 
Author
Message

Omen ®

Longevity: 9 years 1 month

Posts: 181086

Торрент-статистика

Post 22-Mar-2013 23:56

[Quote]

ИНТЕРНЫ / (Сезон 8 / Серия 150 )
Жанр: Комедия
Год выпуска: 2013
Производство: НТВ-Кино - 7art - Comedy Club Production
Продолжительность: 00:24:32
Субтитры: нет
Режиссеры: Максим Пежемский, Заур Болотаев, Милан Килибарда, Евгений Невский, Радда Новикова.
Сценарий: Вячеслав Дусмухаметов, Александр Кагарманов, Кирилл Керзок, Сергей Кулыбышев, Виталий Лисичкин, Григорий Швиденко. Композитор: Максим Тимошенко.
В ролях: Иван Охлобыстин, Кристина Асмус, Илья Глинников, Александр Ильин (младший), Дмитрий Шаракоис, Один Ланд Байрон, Вадим Демчог, Светлана Пермякова, Светлана Камынина, Мария Пирогова, Елена Суркова, Татьяна Лянник, Татьяна Мухина и др..
Описание: Сериал посвящён работе молодых неопытных интернов, постоянно попадающих в нелепые ситуации. Ими руководит заведующий терапевтическим отделением — доктор Быков, постоянно над ними подшучивающий. Помогают Быкову и наблюдают за приключениями интернов его друг, доктор-венеролог Купитман, и медсестра Любовь Михайловна Скрябина, а наводит порядок в больнице главврач Анастасия Кисегач.
Качество: DVB
Формат: MPEG
Видео кодек: MPEG2
Аудио кодек: MPEG Audio (Version 1) (Layer 2)
Видео: MPEG 2, 720 x 576, 25 fps, 4000 kbps
Аудио: MPEG Audio (Version 1) (Layer 2), 2 Ch, 48 KHz, 192 kbps

MediaInfo

General
Complete name : O:\Интерны - 150 серия.mpg
Format : MPEG-PS
File size : 754 MiB
Duration : 24mn 32s
Overall bit rate : 4 294 Kbps
Writing library : (c) 1998-2010 Womble Multimedia, Inc. / MPEG Video Wizard DVD 5.0.0.114 (01/2010) / Apr 20 2010
Video
ID : 224 (0xE0)
Format : MPEG Video
Format version : Version 2
Format profile : [email protected]
Format settings, BVOP : Yes
Format settings, Matrix : Default
Format settings, GOP : M=2, N=36
Duration : 24mn 32s
Bit rate mode : Variable
Bit rate : 4 016 Kbps
Nominal bit rate : 15.0 Mbps
Width : 720 pixels
Height : 576 pixels
Display aspect ratio : 4:3
Frame rate : 25.000 fps
Standard : PAL
Color space : YUV
Chroma subsampling : 4:2:0
Bit depth : 8 bits
Scan type : Interlaced
Scan order : Top Field First
Bits/(Pixel*Frame) : 0.387
Stream size : 705 MiB (94%)
Writing library : (c) 1998-2010 Womble Multimedia, Inc. / MPEG Video Wizard DVD 5.0.0.114 (01/2010) / Apr 20 2010
Audio
ID : 192 (0xC0)
Format : MPEG Audio
Format version : Version 1
Format profile : Layer 2
Duration : 24mn 32s
Bit rate mode : Constant
Bit rate : 192 Kbps
Channel(s) : 1 channel
Sampling rate : 48.0 KHz
Stream size : 33.7 MiB (4%)

Скриншоты

Other forum [Profile] [PM]
Display posts from previous:    
Reply to topic

The time now is: Today 22:40

All times are GMT + 3 Hours



You cannot post new topics in this forum
You cannot reply to topics in this forum
You cannot edit your posts in this forum
You cannot delete your posts in this forum
You cannot vote in polls in this forum
You cannot attach files in this forum
You cannot download files in this forum