Today is a free download without charge Download

Linkin Park - With Linkin Park in LA (Live Vibrations) [2012, Alt. Rock, HDTV 1080i]

Reply to topic
 
Author
Message

Omen ®

Longevity: 8 years 4 months

Posts: 181087

Торрент-статистика

Post 22-Mar-2013 23:56

[Quote]

Linkin Park - With Linkin Park in LA (Live Vibrations)
Жанр: Alt. Rock
Продолжительность: 21 мин 48 сек
Год выпуска: 2012
Описание: Rockers Linkin Park perform a selection of their biggest hits, including Numb, Waiting for the End and Iridescent, to an intimate crowd of 200 people in a top secret LA venue. (MTV Live Vibrations)
Треклист:
01. The Catalyst
02. Waiting for the End
03. Iridescent
04. Numb
Качество: HDTV 1080i
Контейнер: MKV
Видео кодек: H.264
Аудио кодек: AC3
Видео: Codec: V_MPEG4/ISO/AVC, 1920x1080i, 16.1 Mbps, 25 fps
Аудио: AC3, Chann. 2, SR:48 KHz, BR: 384 kb/s

МедиаИнфо/Скриншоты

Отчёт MediaInfo

GeneralComplete name : Linkin Park-Live Vibr.mkvFormat : MatroskaFile size : 2.56 GiBDuration : 21mn 48sOverall bit rate : 16.8 MbpsWriting application : Lavf53.21.1Writing library : Lavf53.21.1
VideoID : 1Format : AVCFormat/Info : Advanced Video CodecFormat profile : [email protected] settings, CABAC : YesFormat settings, ReFrames : 4 framesFormat settings, GOP : M=1, N=24Muxing mode : Container [email protected] ID : V_MPEG4/ISO/AVCDuration : 21mn 48sBit rate : 16.1 MbpsWidth : 1 920 pixelsHeight : 1 080 pixelsDisplay aspect ratio : 16:9Frame rate : 25.000 fpsColor space : YUVChroma subsampling : 4:2:0Bit depth : 8 bitsScan type : InterlacedScan order : Top Field FirstBits/(Pixel*Frame) : 0.310Stream size : 2.45 GiB (96%)Color primaries : BT.709-5, BT.1361, IEC 61966-2-4, SMPTE RP177Transfer characteristics : BT.709-5, BT.1361Matrix coefficients : BT.709-5, BT.1361, IEC 61966-2-4 709, SMPTE RP177
AudioID : 2Format : AC-3Format/Info : Audio Coding 3Format profile : Dolby DigitalMode extension : CM (complete main)Codec ID : A_AC3Duration : 21mn 48sBit rate mode : ConstantBit rate : 384 KbpsChannel(s) : 2 channelsChannel positions : Front: L RSampling rate : 48.0 KHzVideo delay : 42msStream size : 59.9 MiB (2%)
Other forum [Profile] [PM]
Display posts from previous:    
Reply to topic

The time now is: Today 09:03

All times are GMT + 3 Hours



You cannot post new topics in this forum
You cannot reply to topics in this forum
You cannot edit your posts in this forum
You cannot delete your posts in this forum
You cannot vote in polls in this forum
You cannot attach files in this forum
You cannot download files in this forum