Today is a free download without charge Download

Сваты 6 [1-2 серии из 4] (2013) DVB [За кадром] [Обновляемая]

Reply to topic
 
Author
Message

UndegraundMen ®

Longevity: 8 years 9 months

Posts: 25145

Торрент-статистика

Post 22-Mar-2013 21:12

[Quote]

Сваты 6 [1-2 серии из 4] (2013) DVB [За кадром] [Обновляемая]- Русское название: Сваты 6
Выпущено: «Студия Квартал-95»
Год выпуска: 2013
Жанр: Комедия
Перевод: Оригинал (Русский)
Субтитры: Отсутствуют
Сэмпл:
Дата украинской премьеры: 11 марта 2013
Режиссер: Андрей Яковлев, Эдуард Радзюкевич
Актеры: Фёдор Добронравов, Татьяна Кравченко, Людмила Артемьева, Анна Кошмал, Александр Феклистов, Анна Полищук, Костя Чернокрылюк, Олеся Железняк, Николай Добрынин, Владимир Зельдин, Ольга Аросева, Даниил Белых, Инна Королёва, Эммануил Виторган, Елена Сафонова, Роман Лукьянов, Евгений Капорин, Фёдор Гуринец, Алексей Смолка, Денис Шепотинник, Татьяна Васильева, Мария Кочур, Екатерина Варченко
Описание фильма:
Начиная с четверга, 21 марта, смотрите фильм о том, как снимали 6 сезон сериала " Сваты ". Впереди - самые горячие подробности со съемок. Первые две серии документального фильма " Сваты-6. За кадром "смотрите в четверг, а в пятницу вас ждут две порции эксклюзива! Знаете ли вы, что после команды "Стоп, снято!" начинается все самое интересное? Съемочная группа любимого сериала прожила с "Сватами" весь год и готова поделиться уникальными кадрами и интервью, снятыми во время напряженной работы над шестым сезоном. Зрители увидят, как снимались самые яркие сцены сериала "Сваты-6" и услышат актерские байки со съемочной площадки. Главные герои документального фильма - актеры, авторы и другие члены съемочной группы - расскажут о все внештатные ситуации, о комические случаи и даже драматические эпизоды, которые произошли во время съемок. Все это в 4-серийном документальном проекте "Сваты-6. За кадром".
Продолжительность: 2 х ~00:45:00 серия
Качество видео: DVB
Видеокодек: MPEG2 Video
Битрейт видео: ~4 600 kbps
Размер кадра: 720x576
Аудиокодек: MPEG Audio
Битрейт аудио: 256 kbpsВнимание! Раздача ведётся путём добавления новых серий

Внимание! Раздача ведётся путём добавления новых серий. Описание обновления торрента.

Внимание! Раздача ведётся путём добавления новых серий; при каждом добавлении создётся новый торрент. Чтобы начать докачку новой серии, пользователям необходимо сделать следующее:
(1) остановить скачивание,
(2) удалить старый торрент у себя из клиента (старые серии удалять не надо),
(3) скачать новый торрент и запустить его у себя в клиенте вместо старого, при этом указать клиенту путь в старую папку куда и должно происходить скачивание новых серий.
Ваш клиент при этом должен произвести хеширование (проверку) старой папки (если не производит сам - помогите ему сделать это), и будет докачивать только те серии которых у вас ещё нет. Старые серии при этом не удаляются, а продолжают раздаваться!
Eсли вы уже удалили старые серии, то предотвратить повторную закачку старых серий можно, отжав галочку в соответсвующих местах при запуске нового торрента. По возможности, желательно не удалять старые серии как можно дольше чтобы релизёр не столько продолжал раздавать старые серии, а смог сконцентрироваться на новых.

MediaInfo

Общее
Полное имя : F:\Фильмы\Сваты6 DVB\Сваты6.DVB.За кадром\Сваты6.За кадром.01.mpg
Формат : MPEG-PS
Размер файла : 1,53 Гбайт
Продолжительность : 44 м.
Режим общего битрейта : Переменный
Общий поток : 4970 Кбит/сек
Библиотека кодирования : (c) 1998-2010 Womble Multimedia, Inc. / MPEG Video Wizard DVD 5.0.0.114 (01/2010) / Nov 13 2010
Видео
Идентификатор : 224 (0xE0)
Формат : MPEG Video
Версия формата : Version 2
Профиль формата : [email protected]
Параметр BVOP формата : Да
Параметр матрицы формата : Выборочная
Параметр GOP формата : Variable
Продолжительность : 44 м.
Вид битрейта : Переменный
Битрейт : 4636 Кбит/сек
Ширина : 720 пикселей
Высота : 576 пикселей
Соотношение сторон : 4:3
Частота кадров : 25,000 кадров/сек
Стандарт вещания : PAL
Цветовое пространство : YUV
Субдискретизация насыщенности : 4:2:0
Битовая глубина : 8 бит
Тип развёртки : Чересстрочная
Порядок развёртки : Верхнее поле первое
Метод сжатия : С потерями
Бит/(Пиксели*Кадры) : 0.447
Размер потока : 1,42 Гбайт (93%)
Выравнивание : (c) 1998-2010 Womble Multimedia, Inc. / MPEG Video Wizard DVD 5.0.0.114 (01/2010) / Nov 13 2010
Заголовок : (c) 1998-2010 Womble Multimedia, Inc. / MPEG Video Wizard DVD 5.0.0.114 (01/2010) / Nov 13 2010
Библиотека кодирования : (c) 1998-2010 Womble Multimedia, Inc. / MPEG Video Wizard DVD 5.0.0.114 (01/2010) / Nov 13 2010
Аудио
Идентификатор : 192 (0xC0)
Формат : MPEG Audio
Версия формата : Version 1
Профиль формата : Layer 2
Продолжительность : 44 м.
Вид битрейта : Постоянный
Битрейт : 256 Кбит/сек
Каналы : 2 канала
Частота : 48,0 КГц
Метод сжатия : С потерями
Размер потока : 80,8 Мбайт (5%)
Меню
Скриншоты:
       
Other forum [Profile] [PM]
Display posts from previous:    
Reply to topic

The time now is: Today 18:20

All times are GMT + 3 Hours



You cannot post new topics in this forum
You cannot reply to topics in this forum
You cannot edit your posts in this forum
You cannot delete your posts in this forum
You cannot vote in polls in this forum
You cannot attach files in this forum
You cannot download files in this forum