Today is a free download without charge Download

Неверная / Unfaithful (Эдриан Лайн) [2002 г., триллер, драма, мелодрама, BDRip720p]

Reply to topic
 
Author
Message

Delia ®

Gender:

Longevity: 9 years 6 months

Posts: 1821

Торрент-статистика

Post 06-Jul-2011 11:20

[Quote]

НевернаяUnfaithful Год выпуска: 2002
Страна: США, Германия, Франция
Жанр: триллер, драма, мелодрама
Продолжительность: 124 мин.
Перевод: Профессиональный (полное дублирование)
Режиссер: Эдриан Лайн
Продюссер: Дж. Мак Браун, Эдриан Лайн, Лоуренс Стивен Мейерс
Сценарий: Клод Шаброль, Элвин Сарджент, Уильям Бройлес мл.
Бюджет: $50 000 000
Премьера в мире: 10 мая 2002
В ролях: Дайан Лэйн, Ричард Гир, Оливье Мартинес, Эрик Пер Салливан, Мира Лукреция Тейлор, Мишель Монахэн, Чад Лоу, Джозеф Бадалуччо мл., Эрик Андерсон, Дэймон Гаптон
Описание: Эдварду и Конни Самнер можно позавидовать: вместе с восьмилетним сыном, собакой и домоправительницей они наслаждаются жизнью в тихом пригороде Нью-Йорка. Но судьба в облике молодого человека, с которым Конни сталкивается в Сохо, наносит удар по этому воплощению «американской мечты» и по счастливому, хотя и слегка монотонному существованию супругов.Случайная встреча перерастает в бурный роман, в котором есть все — тайна, спонтанность, красота и... опасность. Когда Эдвард узнает о том, что жена от него что-то скрывает, он начинает за ней следить, выведывая мучительные подробности обмана. Не выдержав груза тайны, он встречается с любовником Конни, и копившийся в нем гнев выходит наружу приступом страшной, неожиданной для него самого ярости. Что ждет семью, в которой поселились обман, чувство вины и страх? Есть ли у нее будущее?...
Качество: BDRip720p
Формат: MKV
Видео кодек: H.264
Аудио кодек: AC3
Видео: English, 4101 Кбит/сек, 1280*688 (1,860), в 23,976 кадр/сек, AVC ([email protected])
Аудио: Russian, 640 Кбит/сек, 48,0 КГц, 16 бит, 6 канала(ов), AC-3
Аудио:English, 320 Кбит/сек, 48,0 КГц, 16 бит, 6 канала(ов), AC-3
Субтитры:Russian, English - VobSub

MI:

Общее
Уникальный идентификатор : 184946810933815549679524614345970279391 (0x8B2375CB0E4A8AEEB0E559EED5FDE3DF)
Полное имя : F:\торрент\Unfaithful (2002)BDRip720p .mkv
Формат : Matroska
Размер файла : 4,37 Гбайт
Продолжительность : 2 ч. 3 м.
Общий поток : 5064 Кбит/сек
Дата кодирования : UTC 2011-07-06 07:22:45
Программа кодирования : mkvmerge v4.8.0 ('I Got The...') built on May 24 2011 03:12:58
Библиотека кодирования : libebml v1.2.0 + libmatroska v1.1.0
Видео
Идентификатор : 1
Формат : AVC
Формат/Информация : Advanced Video Codec
Профиль формата : [email protected]
Параметр CABAC формата : Да
Параметр ReFrames формата : 10 кадры
Идентификатор кодека : V_MPEG4/ISO/AVC
Продолжительность : 2 ч. 3 м.
Битрейт : 4101 Кбит/сек
Ширина : 1280 пикс.
Высота : 688 пикс.
Соотношение сторон : 1,860
Частота кадров : 23,976 кадр/сек
Цветовое пространство : YUV
Подвыборка цветности : 4:2:0
Битовая глубина : 8 бит
Тип развёртки : Прогрессивная
Бит/(Пиксели*Кадры) : 0.194
Размер потока : 3,46 Гбайт (79%)
Библиотека кодирования : x264 core 115 r2008 4c552d8
Настройки программы : cabac=1 / ref=10 / deblock=1:-2:-2 / analyse=0x3:0x133 / me=umh / subme=8 / psy=1 / psy_rd=1.00:0.15 / mixed_ref=1 / me_range=32 / chroma_me=1 / trellis=2 / 8x8dct=1 / cqm=0 / deadzone=21,11 / fast_pskip=0 / chroma_qp_offset=-3 / threads=6 / sliced_threads=0 / nr=0 / decimate=1 / interlaced=0 / bluray_compat=0 / constrained_intra=0 / bframes=8 / b_pyramid=2 / b_adapt=2 / b_bias=0 / direct=3 / weightb=1 / open_gop=0 / weightp=2 / keyint=250 / keyint_min=24 / scenecut=40 / intra_refresh=0 / rc_lookahead=40 / rc=2pass / mbtree=1 / bitrate=4101 / ratetol=1.0 / qcomp=0.60 / qpmin=10 / qpmax=51 / qpstep=4 / cplxblur=20.0 / qblur=0.5 / ip_ratio=1.40 / aq=1:1.00
Язык : English
Аудио #1
Идентификатор : 2
Формат : AC-3
Формат/Информация : Audio Coding 3
Расширение режима : CM (complete main)
Идентификатор кодека : A_AC3
Продолжительность : 2 ч. 3 м.
Вид битрейта : Постоянный
Битрейт : 640 Кбит/сек
Канал(ы) : 6 канала(ов)
Расположение каналов : Front: L C R, Side: L R, LFE
Частота : 48,0 КГц
Битовая глубина : 16 бит
Метод сжатия : С потерями
Размер потока : 566 Мбайт (13%)
Язык : Russian
Аудио #2
Идентификатор : 3
Формат : AC-3
Формат/Информация : Audio Coding 3
Расширение режима : CM (complete main)
Идентификатор кодека : A_AC3
Продолжительность : 2 ч. 3 м.
Вид битрейта : Постоянный
Битрейт : 320 Кбит/сек
Канал(ы) : 6 канала(ов)
Расположение каналов : Front: L C R, Side: L R, LFE
Частота : 48,0 КГц
Битовая глубина : 16 бит
Метод сжатия : С потерями
Размер потока : 283 Мбайт (6%)
Язык : English
Текст #1
Идентификатор : 4
Формат : VobSub
Режим смешивания : zlib
Идентификатор кодека : S_VOBSUB
Идентификатор кодека/Информация : The same subtitle format used on DVDs
Язык : Russian
Текст #2
Идентификатор : 5
Формат : VobSub
Режим смешивания : zlib
Идентификатор кодека : S_VOBSUB
Идентификатор кодека/Информация : The same subtitle format used on DVDs
Язык : English
Меню
00:00:00.000 : en:00:00:00.000
00:01:48.692 : en:00:01:48.692
00:05:29.287 : en:00:05:29.287
00:09:16.556 : en:00:09:16.556
00:17:32.802 : en:00:17:32.802
00:20:14.880 : en:00:20:14.880
00:26:58.659 : en:00:26:58.659
00:30:47.721 : en:00:30:47.721
00:41:40.456 : en:00:41:40.456
00:43:08.461 : en:00:43:08.461
00:48:13.724 : en:00:48:13.724
00:55:55.477 : en:00:55:55.477
00:57:14.264 : en:00:57:14.264
01:05:58.163 : en:01:05:58.163
01:10:48.953 : en:01:10:48.953
01:19:14.708 : en:01:19:14.708
01:24:57.759 : en:01:24:57.759
01:29:02.045 : en:01:29:02.045
01:33:57.674 : en:01:33:57.674
01:42:51.916 : en:01:42:51.916
01:44:29.221 : en:01:44:29.221
01:49:54.421 : en:01:49:54.421
01:56:17.012 : en:01:56:17.012
01:58:46.745 : en:01:58:46.745

Скриншоты

               

_________________
Человек – это канат, натянутый между животным и сверхчеловеком, – канат над пропастью.
В человеке ценно то, что он мост, а не цель. Фридрих Ницше


Last edited by Delia on 2011-08-26 17:47; edited 2 times in total
Other forum [Profile] [PM]
Display posts from previous:    
Reply to topic

The time now is: Today 20:04

All times are GMT + 3 Hours



You cannot post new topics in this forum
You cannot reply to topics in this forum
You cannot edit your posts in this forum
You cannot delete your posts in this forum
You cannot vote in polls in this forum
You cannot attach files in this forum
You cannot download files in this forum