Today is a free download without charge Download

Украсть Гарвард / Мой криминальный дядюшка / Stealing Harvard (Брюс Маккаллок / Bruce McCulloch) [2002, США, комедия, криминал, BDRemux 1080p] MVO + Sub Eng + Original Eng

Reply to topic
 
Author
Message

Omen ®

Longevity: 8 years 5 months

Posts: 181087

Торрент-статистика

Post 22-Mar-2013 19:52

[Quote]

Украсть Гарвард / Мой криминальный дядюшка /
Stealing Harvard
-
Страна: США
Жанр: комедия, криминал
Год выпуска: 2002
Продолжительность: 01:25:26
Перевод: Профессиональный (многоголосый закадровый)
Cубтитры: английские
Оригинальная аудиодорожка: английский-Режиссер: Брюс Маккаллок / Bruce McCulloch
В ролях: Джейсон Ли, Том Грин, Лесли Манн, Деннис Фарина, Меган Маллалли, Джон К. МакГинли, Тэмми Бланчард, Крис Пенн, Ричард Дженкинс, Сеймур Кэссел-Описание: Дафф и Джон — лучшие друзья, но крайне отличаются друг от друга. Дафф — вечно неуспевающий ученик, всю жизнь оказывающий плохое влияние на Джона. Джон — прагматичный, трудолюбивый парень, который лишь хочет жениться на своей давней подруге Илейн. Илейн и Джон поклялись жениться, когда накопят 30,000 $ на дом их мечты. После стольких лет усилий, молодые могут пойти под венец и купить собственный дом.
Неожиданно поступает звонок от сестры Джона — Петти с невероятными новостями о том, что его племянницу Норин приняли в Северный Университет. Колокола свадьбы умолкают, когда Петти напоминает Джону о его обещании оплатить обучение племянницы в размере как раз таки 30 тысяч долларов. Более того, обучение должно быть оплачено в течение двух недель. Неспособный рассказать о случившемся своей подружке, Джон обращается к своему другу Дафу, чтобы тот помог ему достать необходимую сумму за 2 недели…
Тип релиза: BDRemux 1080p
Контейнер: MKV
Видео: AVC, 1920x1080, 23.976 fps, 23927 Kbps
Аудио 1: AC3, 48000 Hz, 192 kbps, 2 channels - MVO
Аудио 2: DTS-HD MA, 48000 Hz, 2219 Kbps, 5.1 channels (DTS Core: 5.1 / 48 kHz / 1509 kbps / 16-bit) - ENG
- -

Скриншоты


Резервные скриншоты



-

MediaInfo

Format : Matroska
Format version : Version 4 / Version 2
File size : 15.7 GiB
Duration : 1h 25mn
Overall bit rate mode : Variable
Overall bit rate : 26.3 Mbps
Movie name : Украсть Гарвард / Мой криминальный дядюшка / Stealing Harvard (2002) BDRemux by RG Torrents.ru
Encoded date : UTC 2013-03-20 13:43:01
Writing application : mkvmerge v6.1.0 ('Old Devil') built on Mar 2 2013 14:32:37
Writing library : libebml v1.3.0 + libmatroska v1.4.0
Attachment : Yes
Video
ID : 1
Format : AVC
Format/Info : Advanced Video Codec
Format profile : [email protected]
Format settings, CABAC : Yes
Format settings, ReFrames : 2 frames
Muxing mode : Container [email protected]
Codec ID : V_MPEG4/ISO/AVC
Duration : 1h 25mn
Bit rate mode : Variable
Bit rate : 23.6 Mbps
Width : 1 920 pixels
Height : 1 080 pixels
Display aspect ratio : 16:9
Frame rate : 23.976 fps
Color space : YUV
Chroma subsampling : 4:2:0
Bit depth : 8 bits
Scan type : Progressive
Bits/(Pixel*Frame) : 0.474
Stream size : 14.1 GiB (89%)
Title : R.G. Torrents.Ru
Language : English
Default : Yes
Forced : No
Audio #1
ID : 2
Format : AC-3
Format/Info : Audio Coding 3
Mode extension : CM (complete main)
Codec ID : A_AC3
Duration : 1h 25mn
Bit rate mode : Constant
Bit rate : 192 Kbps
Channel(s) : 2 channels
Channel positions : Front: L R
Sampling rate : 48.0 KHz
Bit depth : 16 bits
Compression mode : Lossy
Stream size : 117 MiB (1%)
Title : MVO
Language : Russian
Default : Yes
Forced : No
Audio #2
ID : 3
Format : DTS
Format/Info : Digital Theater Systems
Format profile : MA / Core
Codec ID : A_DTS
Duration : 1h 25mn
Bit rate mode : Variable
Bit rate : 2 065 Kbps / 1 510 Kbps
Channel(s) : 6 channels
Channel positions : Front: L C R, Side: L R, LFE
Sampling rate : 48.0 KHz
Bit depth : 16 bits
Compression mode : Lossless / Lossy
Title : ENG
Language : English
Default : No
Forced : No
Text
ID : 4
Format : UTF-8
Codec ID : S_TEXT/UTF8
Codec ID/Info : UTF-8 Plain Text
Language : English
Default : No
Forced : No
Menu
00:00:00.000 : en:00:00:00.000
00:06:36.229 : en:00:06:36.229
00:12:47.600 : en:00:12:47.600
00:17:32.385 : en:00:17:32.385
00:19:03.934 : en:00:19:03.934
00:24:47.820 : en:00:24:47.820
00:29:33.563 : en:00:29:33.563
00:33:53.823 : en:00:33:53.823
00:38:02.113 : en:00:38:02.113
00:47:05.114 : en:00:47:05.114
00:50:39.954 : en:00:50:39.954
00:55:33.455 : en:00:55:33.455
00:58:30.507 : en:00:58:30.507
01:05:52.615 : en:01:05:52.615
01:09:40.510 : en:01:09:40.510
01:13:48.382 : en:01:13:48.382
-
Other forum [Profile] [PM]

Dracula

Longevity: 7 years 5 months

Posts: 11219

Торрент-статистика

Post 30-Mar-2013 09:08 (after 7 days)

Топик был перенесен из форума Зарубежное кино (HD Video) в форум Зарубежное кино


Delia
 
Display posts from previous:    
Reply to topic

The time now is: Today 11:40

All times are GMT + 3 Hours



You cannot post new topics in this forum
You cannot reply to topics in this forum
You cannot edit your posts in this forum
You cannot delete your posts in this forum
You cannot vote in polls in this forum
You cannot attach files in this forum
You cannot download files in this forum