Today is a free download without charge Download

(Авторская песня) Российские барды. Том 10- Юлий Ким - (2010) - 2010, APE (image + .cue) lossless

Reply to topic
 
Author
Message

Varius ®

Gender:

Longevity: 11 years

Posts: 2428

Location: Hell

Торрент-статистика

Post 06-Jul-2010 19:04

[Quote]

Российские барды. Том 10- Юлий Ким - (2010)
Страна: Россия
Жанр: Авторская песня
Год выпуска: 2010
Формат: APE| lossless
Продолжительность: 73:53

Трэклист

:
01 — Юлий Ким — Эх, душа моя
02 — Юлий Ким — Рыба-кит
03 — Юлий Ким — Капитан Беринг
04 — Юлий Ким — Бычок
05 — Юлий Ким — Губы окаянные
06 — Юлий Ким — Гренадёры
07 — Юлий Ким — Кавалергарды
08 — Юлий Ким — Бомбардиры
09 — Юлий Ким — Фантастика-романтика
10 — Юлий Ким — Старый пират
11 — Юлий Ким — Отважный капитан
12 — Юлий Ким — Распогодилась погода
13 — Юлий Ким — Чёрное море
14 — Юлий Ким — Ой, как хорошо
15 — Юлий Ким — Автодорожная
16 — Юлий Ким — Песня частных репетиторов
17 — Юлий Ким — Монолог Вральмана
18 — Юлий Ким — Петрушка
19 — Юлий Ким — Клоун
20 — Юлий Ким — На рассвете
21 — Юлий Ким — Сенсация
22 — Юлий Ким — Разбойничья
23 — Юлий Ким — Моторчик
24 — Юлий Ким — Театральный эпилог
25 — Юлий Ким — Адвокатский вальс
26 — Юлий Ким — Капризная Маша
27 — Юлий Ким — Карусель
28 — Юлий Ким — Московские кухни
29 — Юлий Ким — Полночный троллейбус
30 — Юлий Ким — Хайфа
31 — Юлий Ким — Дорожка
32 — Юлий Ким — Капитанская
33 — Юлий Ким — Безразмерное танго

Лог

Exact Audio Copy V0.99 prebeta 5 from 4. May 2009
EAC extraction logfile from 2. July 2010, 12:33
Юлий Ким / Российские барды
Used drive : BENQ DVD DD DW1640 Adapter: 1 ID: 1
Read mode : Secure
Utilize accurate stream : Yes
Defeat audio cache : Yes
Make use of C2 pointers : No
Read offset correction : 618
Overread into Lead-In and Lead-Out : No
Fill up missing offset samples with silence : Yes
Delete leading and trailing silent blocks : No
Null samples used in CRC calculations : Yes
Used interface : Installed external ASPI interface
Used output format : Internal WAV Routines
Sample format : 44.100 Hz; 16 Bit; Stereo
TOC of the extracted CD
Track | Start | Length | Start sector | End sector
---------------------------------------------------------
1 | 0:00.00 | 1:39.65 | 0 | 7489
2 | 1:39.65 | 1:46.61 | 7490 | 15500
3 | 3:26.51 | 2:13.03 | 15501 | 25478
4 | 5:39.54 | 1:44.54 | 25479 | 33332
5 | 7:24.33 | 1:56.28 | 33333 | 42060
6 | 9:20.61 | 1:53.19 | 42061 | 50554
7 | 11:14.05 | 2:22.71 | 50555 | 61275
8 | 13:37.01 | 1:54.20 | 61276 | 69845
9 | 15:31.21 | 1:46.32 | 69846 | 77827
10 | 17:17.53 | 2:56.35 | 77828 | 91062
11 | 20:14.13 | 1:57.03 | 91063 | 99840
12 | 22:11.16 | 1:10.02 | 99841 | 105092
13 | 23:21.18 | 2:39.46 | 105093 | 117063
14 | 26:00.64 | 2:05.67 | 117064 | 126505
15 | 28:06.56 | 1:46.38 | 126506 | 134493
16 | 29:53.19 | 1:05.44 | 134494 | 139412
17 | 30:58.63 | 1:51.12 | 139413 | 147749
18 | 32:50.00 | 1:28.01 | 147750 | 154350
19 | 34:18.01 | 1:40.05 | 154351 | 161855
20 | 35:58.06 | 2:05.06 | 161856 | 171236
21 | 38:03.12 | 2:45.72 | 171237 | 183683
22 | 40:49.09 | 1:58.50 | 183684 | 192583
23 | 42:47.59 | 1:52.48 | 192584 | 201031
24 | 44:40.32 | 2:43.59 | 201032 | 213315
25 | 47:24.16 | 2:22.59 | 213316 | 224024
26 | 49:47.00 | 1:55.60 | 224025 | 232709
27 | 51:42.60 | 2:16.26 | 232710 | 242935
28 | 53:59.11 | 4:27.42 | 242936 | 263002
29 | 58:26.53 | 1:45.64 | 263003 | 270941
30 | 60:12.42 | 1:52.36 | 270942 | 279377
31 | 62:05.03 | 2:00.32 | 279378 | 288409
32 | 64:05.35 | 2:14.40 | 288410 | 298499
33 | 66:20.00 | 7:32.70 | 298500 | 332469
Range status and errors
Selected range
Filename C:\KroMvEL\Юлий Ким - Российские барды\Юлий Ким - Российские барды.wav
Peak level 100.0 %
Range quality 100.0 %
Test CRC 1C03177E
Copy CRC 1C03177E
Copy OK
No errors occurred
End of status report
Доп. информация: Как ни странно, но, кроме Юлия Кима, в ХХ веке, за исключением Высоцкого и Окуджавы, пожалуй, и не было больше такого «всезаполняющего» барда, который «сопровождал» бы каждого жившего в СССР своими песнями от детского сада до самой пенсии.
Ким разносторонний и резко критикующий общество бард. Он вёл борьбу против пустых лозунгов партии, бессодержательной советской идеологии, господствующей повсюду лжи, принуждения к двоемыслию, фальши, — и все это в лёгкой форме, смеясь, иронически, иногда под маской клоуна.
Если вдруг взять и «извлечь» Кима из нашей культуры, дыра получится просто гигантская. Выяснится, что чуть ли не добрая половина (ну хорошо, добрая треть!) советской кино-классики «опеснена» им, при всем при этом кумиром страны так почему-то и не ставшим. Может, причина в том, что практически везде в титрах скрывавшегося от гонений цензуры Кима прятали под полит корректным псевдонимом «Ю. Михайлов»?

_________________

Создавая "Новую папку", не считайте себя Создателем - это право Вам дано Админом




Last edited by Varius on 2011-02-04 21:03; edited 4 times in total
Other forum [Profile] [PM]

Paullo

Gender:

Longevity: 10 years

Posts: 393

Location: деактивировано, причина: - Последний визит: 2017-06-22 darkos_bot 12.06.19г

Торрент-статистика

Post 07-Jul-2010 00:32 (after 5 hours)

[Quote]

Может еще лог добавить? :ah: для пушего превосходства :ay:
формат: АРЕ , а битрейт: lossless :ah:

_________________
сами мы не местные...
Other forum [Profile] [PM]

ChihPyh

Торрент-статистика

Post 07-Jul-2010 07:51 (after 7 hours)

[Quote]

Paullo писал(а):
Может еще лог добавить?
а вот это обязательно надо.... в правилах прописано, что раздачи в lossless c логом должны быть...)))
да и формат неправильно написан (Varius, ты помойму все там перебрал :D )... напиши, как те Paullo подсказал
 

Paullo

Gender:

Longevity: 10 years

Posts: 393

Location: деактивировано, причина: - Последний визит: 2017-06-22 darkos_bot 12.06.19г

Торрент-статистика

Post 07-Jul-2010 13:32 (after 5 hours)

[Quote]

Varius писал(а):
Lossy
не соглашусь я с вами :ah: lossless у вас---Lossy - кодеки сжатия с потерями (это технология сжатия звуковых файлов, которая значительно уменьшает размер кодированного файла по сравнению с оригинальным за счет удаления информации, невоспринимаемой человеком) самый распространенный пример это МР3 :)

Список наиболее распространных lossy-форматов

AAC (иногда неправильно называют как MP4 или M4A)
AC3
ATRAC3
DTS
MP2
MP3
Musepack (известен как MPC, прежде носил имена MPEGplus или MP+)
Ogg Vorbis
QDesign
Speex (исключительно голосовой)
VQF
WMA
Lossless же - Сжатие без потерь — это технология компрессирования звуковых файлов без потерь, в результате которой сжатый файл при декодировании восстанавливается полностью бит-в-бит идентично оригинальному несжатому звуковому файлу.... соответственно вес больше и качество лучше :)

Популярные кодеры без потерь

Apple Lossless (ALAC)
FLAC
Lossless Audio (LA)
LPAC
MLP
Monkey's Audio (APE)
OptimFROG
RKAU
Shorten (SHN)
TTA
WavPack
WMA lossless
Но лично я особой разницы между МП3 в 320 и Lossless не слышу (для этого нужна хорошая стерео система)

наглядно

Это спектр Lossy (МП3)

А это Lossless (FLAC)

_________________
сами мы не местные...
Other forum [Profile] [PM]
Display posts from previous:    
Reply to topic

The time now is: Today 09:50

All times are GMT + 3 Hours



You cannot post new topics in this forum
You cannot reply to topics in this forum
You cannot edit your posts in this forum
You cannot delete your posts in this forum
You cannot vote in polls in this forum
You cannot attach files in this forum
You cannot download files in this forum