Today is a free download without charge Download

Мафия / Mafia / Mafia war (Райан Комбс / Ryan Combs) [2011, триллер, BDRip 720p] VO + Sub Rus + Original Eng

Reply to topic
 
Author
Message

Omen ®

Longevity: 8 years 5 months

Posts: 181087

Торрент-статистика

Post 22-Mar-2013 15:27

[Quote]

Мафия / Mafia / Mafia war
Страна: США
Жанр: триллер
Год выпуска: 2011
Продолжительность: 01:21:54
Перевод: Одноголосый закадровый
Cубтитры: русские
Оригинальная аудиодорожка: английский
Режиссер: Райан Комбс / Ryan Combs
В ролях: Винг Реймз, Пэм Гриер,Шон Дерри, Карл Клемонс, Дэвид Билли Коул, Джэк Эрди, Джои Форгиони, Бэррет Хэкни, Патрик Джордан, Мелани Мэрден
Описание: Нью-Йоркский гангстер Ренцо Вeз решил стать королем всего Южного Централа,и,идя к своей цели,не останавливался ни перед чем.
Два детектива решили остановить его путь по трупам.
Семпл
Тип релиза: BDRip 720p
Контейнер: MKV
Видео кодек: MPEG 4 AVC (H.264)
Аудио кодек: AC-3, DTS
Видео: 1280*720, 4 217 Kbps, 23.976 fps
Аудио: AC-3, 224 Kbps, 2CH, 48.0 KHz-любительский одноголосный
Аудио 2: DTS, 1509 Kbps, 6CH, 48.0 KHzанглийский

MediaInfo

Unique ID : 187890805396473445105789960485386851653 (0x8D5A73ED3E889F48A97755D883381545)
Complete name : I:\mafia-720p (RG AVI-AVC).mkv
Format : Matroska
Format version : Version 2
File size : 3.40 GiB
Duration : 1h 21mn
Overall bit rate : 5 939 Kbps
Encoded date : UTC 2013-03-22 10:55:42
Writing application : mkvmerge v5.5.0 ('Healer') built on Apr 6 2012 21:43:24
Writing library : libebml v1.2.3 + libmatroska v1.3.0
Video
ID : 1
Format : AVC
Format/Info : Advanced Video Codec
Format profile : [email protected]
Format settings, CABAC : Yes
Format settings, ReFrames : 5 frames
Codec ID : V_MPEG4/ISO/AVC
Duration : 1h 21mn
Bit rate : 4 217 Kbps
Width : 1 280 pixels
Height : 720 pixels
Display aspect ratio : 16:9
Frame rate mode : Constant
Frame rate : 23.976 fps
Color space : YUV
Chroma subsampling : 4:2:0
Bit depth : 8 bits
Scan type : Progressive
Bits/(Pixel*Frame) : 0.191
Stream size : 2.34 GiB (69%)
Writing library : x264 core 130 r2273 b3065e6
Encoding settings : cabac=1 / ref=5 / deblock=1:0:0 / analyse=0x3:0x113 / me=umh / subme=8 / psy=1 / psy_rd=1.00:0.00 / mixed_ref=1 / me_range=16 / chroma_me=1 / trellis=1 / 8x8dct=1 / cqm=0 / deadzone=21,11 / fast_pskip=1 / chroma_qp_offset=-2 / threads=6 / lookahead_threads=1 / sliced_threads=0 / nr=0 / decimate=1 / interlaced=0 / bluray_compat=0 / constrained_intra=0 / bframes=3 / b_pyramid=2 / b_adapt=2 / b_bias=0 / direct=3 / weightb=1 / open_gop=0 / weightp=2 / keyint=230 / keyint_min=23 / scenecut=40 / intra_refresh=0 / rc_lookahead=50 / rc=2pass / mbtree=1 / bitrate=4217 / ratetol=1.0 / qcomp=0.60 / qpmin=0 / qpmax=69 / qpstep=4 / cplxblur=20.0 / qblur=0.5 / ip_ratio=1.40 / aq=1:1.00
Language : English
Default : Yes
Forced : No
Audio #1
ID : 2
Format : AC-3
Format/Info : Audio Coding 3
Mode extension : CM (complete main)
Format settings, Endianness : Big
Codec ID : A_AC3
Duration : 1h 21mn
Bit rate mode : Constant
Bit rate : 224 Kbps
Channel(s) : 2 channels
Channel positions : Front: L R
Sampling rate : 48.0 KHz
Bit depth : 16 bits
Compression mode : Lossy
Stream size : 131 MiB (4%)
Title : любительский одноголосный Andi
Language : Russian
Default : Yes
Forced : No
Audio #2
ID : 3
Format : DTS
Format/Info : Digital Theater Systems
Mode : 16
Format settings, Endianness : Big
Codec ID : A_DTS
Duration : 1h 21mn
Bit rate mode : Constant
Bit rate : 1 509 Kbps
Channel(s) : 6 channels
Channel positions : Front: L C R, Side: L R, LFE
Sampling rate : 48.0 KHz
Bit depth : 24 bits
Compression mode : Lossy
Stream size : 884 MiB (25%)
Language : English
Default : No
Forced : No
Text
ID : 4
Format : UTF-8
Codec ID : S_TEXT/UTF8
Codec ID/Info : UTF-8 Plain Text
Language : Russian
Default : Yes
Forced : No

Скриншоты

[IMG]http://i53.fastpic.ru/thumb/2013/0322/c3/1f65aa6833d0a4e 1f06351faaf6c0cc3.jpeg[/IMG]
Other forum [Profile] [PM]
Display posts from previous:    
Reply to topic

The time now is: Today 02:14

All times are GMT + 3 Hours



You cannot post new topics in this forum
You cannot reply to topics in this forum
You cannot edit your posts in this forum
You cannot delete your posts in this forum
You cannot vote in polls in this forum
You cannot attach files in this forum
You cannot download files in this forum