Today is a free download without charge Download

Что творят мужчины! (2013) BDRemux [1080p]

Reply to topic
 
Author
Message

UndegraundMen ®

Longevity: 8 years 7 months

Posts: 25145

Торрент-статистика

Post 22-Mar-2013 07:58

[Quote]

Что творят мужчины! (2013) BDRemux
«Секс на вылет»
- Оригинальное название: Что творят мужчины!
Год выпуска: 2013
Производство: Enjoy Movies [Россия]
Жанр: Комедия
Перевод: Не требуется [Русский язык]
Субтитры: Отсутствуют
Режиссер: Сарик Андреасян
Актеры: Таир Мамедов, Константин Крюков, Роман Юнусов, Гавриил Гордеев, Равшана Куркова, Кристина Асмус, Наталия Медведева, Екатерина Скулкина, Анна Хилькевич, Даша Астафьева
Описание фильма:
Неприступные женщины, полмиллиона долларов и четверо героев, которым предстоит принять участие в игре «Секс-лото», организованное миллионером. Суть игры — за пять дней соблазнить как можно больше женщин на морском курорте. Получив задания, великолепная четверка бросается в бой. Но все цели совсем не простые — бабушка, жена олигарха, девственница, феминистка, сектантка — и приз получит только лучший. Каждый применит свой фирменный арсенал, и все будут близки к тому, чтобы получить заветный куш, записав новых жертв в список своих мужских побед. Но неожиданно в «дело секса» вмешается любовь.
Дата мировой премьеры: 28 февраля 2013
Дата российской премьеры: 28 февраля 2013, «Каропрокат»
Дата выхода DVD релиза: 25 марта 2013, «Новый Диск»
Дата выхода Blu-Ray релиза: 25 марта 2013, «Новый Диск»

Возраст 18+ - зрителям, достигшим 18 лет
Продолжительность: 01:26:36
Качество видео: BDRemux
Видео: MPEG4_AVC/H.264, 1920x1080, ~17233 kbps, 24 fps
Аудио 1: DTS-HD MA 5.1, 2282 kbps [Русский]
Аудио 2: AC3 5.1, 640 kbps [Русский]

MediaInfo...

Полное имя : D:\Что.творят.мужчины.(2013).[1080p].BDRemux.mkv
Формат : Matroska
Версия формата : Version 2
Размер файла : 12,2 Гбайт
Продолжительность : 1 ч. 26 м.
Режим общего битрейта : Переменный
Общий поток : 20,2 Мбит/сек
Название фильма : Lelya_K for /*spam*/
Дата кодирования : UTC 2013-03-21 23:41:14
Программа кодирования : mkvmerge v5.7.0 ('The Whirlwind') built on Aug 7 2012 14:11:40
Библиотека кодирования : libebml v1.2.3 + libmatroska v1.3.0
Видео
Идентификатор : 1
Формат : AVC
Формат/Информация : Advanced Video Codec
Профиль формата : [url=mailto:[email protected]][email protected][/url]
Параметр CABAC формата : Да
Параметр ReFrames формата : 3 кадра
Параметр GOP формата : M=3, N=12
Идентификатор кодека : V_MPEG4/ISO/AVC
Продолжительность : 1 ч. 26 м.
Вид битрейта : Переменный
Битрейт : 17,6 Мбит/сек
Максимальный битрейт : 25,0 Мбит/сек
Ширина : 1920 пикселей
Высота : 1080 пикселей
Соотношение сторон : 16:9
Режим частоты кадров : Постоянный
Частота кадров : 24,000 кадра/сек
Стандарт вещания : NTSC
Цветовое пространство : YUV
Субдискретизация насыщенности : 4:2:0
Битовая глубина : 8 бит
Тип развёртки : Прогрессивная
Бит/(Пиксели*Кадры) : 0.353
Размер потока : 10,6 Гбайт (87%)
Заголовок : Что.творят.мужчины.(2013).[1080p].BDRemux
Язык : Russian
Default : Да
Forced : Нет
Основные цвета : BT.709
Характеристики трансфера : BT.709
Коэффициенты матрицы : BT.709
Аудио #1
Идентификатор : 2
Формат : DTS
Формат/Информация : Digital Theater Systems
Профиль формата : MA / Core
Идентификатор кодека : A_DTS
Продолжительность : 1 ч. 26 м.
Вид битрейта : Переменный
Битрейт : 1561 Кбит/сек / 1510 Кбит/сек
Каналы : 6 каналов
Расположение каналов : Front: L C R, Side: L R, LFE
Частота : 48,0 КГц
Битовая глубина : 16 бит
Метод сжатия : Без потерь / Lossy
Заголовок : DTS-HD MA 5.1 / 2282 kbps
Язык : Russian
Default : Да
Forced : Нет
Аудио #2
Идентификатор : 3
Формат : AC-3
Формат/Информация : Audio Coding 3
Расширение режима : CM (complete main)
Параметр Endianness формата : Big
Идентификатор кодека : A_AC3
Продолжительность : 1 ч. 26 м.
Вид битрейта : Постоянный
Битрейт : 640 Кбит/сек
Каналы : 6 каналов
Расположение каналов : Front: L C R, Side: L R, LFE
Частота : 48,0 КГц
Битовая глубина : 16 бит
Метод сжатия : С потерями
Размер потока : 396 Мбайт (3%)
Заголовок : AC3 5.1 / 640 kbps
Язык : Russian
Default : Нет
Forced : Нет
Меню
00:00:00.000 : ru:Chapter 00
00:05:04.333 : ru:Chapter 01
00:10:08.833 : ru:Chapter 02
00:16:56.625 : ru:Chapter 03
00:23:02.833 : ru:Chapter 04
00:32:08.583 : ru:Chapter 05
00:38:21.125 : ru:Chapter 06
00:45:30.750 : ru:Chapter 07
00:55:24.916 : ru:Chapter 08
01:03:07.750 : ru:Chapter 09
01:08:40.000 : ru:Chapter 10
01:15:34.583 : ru:Chapter 11

Bitrate Viewer...

Скриншоты:
       
       
Other forum [Profile] [PM]
Display posts from previous:    
Reply to topic

The time now is: Today 21:02

All times are GMT + 3 Hours



You cannot post new topics in this forum
You cannot reply to topics in this forum
You cannot edit your posts in this forum
You cannot delete your posts in this forum
You cannot vote in polls in this forum
You cannot attach files in this forum
You cannot download files in this forum