Today is a free download without charge Download

Путешествие в экстрим. Серия 1 / Driven to Extremes (2012) SATRip [H.264]

Reply to topic
 
Author
Message

UndegraundMen ®

Longevity: 7 years 7 months

Posts: 25145

Торрент-статистика

Post 22-Mar-2013 04:54

[Quote]

Путешествие в экстрим. Серия 1 / Driven to Extremes (2012) SATRip [H.264]- Режиссер / Телекомпания: Discovery
Русское название: Путешествие в экстрим
Оригинальное название: Driven to Extremes
Год выпуска: 2012
Жанр: Документальный, путешествия, авто, испытание, природа
Выпущено: США, North One TV, JWT Ent., for Discovery Networks EU
Описание:
В первом выпуске Том Харди и бывший пилот Формулы 1 Мика Сало. Два искателя острых ощущений готовы отправиться в путь по самой невообразимой зимней дороге. По восточной Сибири, где температура зимой падает до немыслимых -70. Они хотят выяснить, хватит ли их, чтобы доехать из Якутска до самого холодного города на земле Оймякона. Им придется иметь дело со смертельными дорогами, покрытыми многослойными льдами, с мрачными, пустынными и дикими землями. Это путь в тысячи километров по самой холодной дороге в мире. Во втором выпуске программы вы увидите, как Генри Кэвилл, которой сыграл Супермена в ожидаемом всеми блокбастере, в сопровождении Нейла Ходгсона борется с пустыней Такла-Макан. Песок, жара и резкие перепады температур убивают автомобиль и изнуряют водителей, но нужно во что бы то ни стало добраться до Урумчи, самого отдаленного от моря города в мире. В финальном выпуске в роли эксперта вновь выступает Мика Сало, а за руль садится Эдриэн Броуди. Задача – пробраться на автомобиле через непроходимые джунгли Малайзии.
Режиссёр: Джеймс Вудрофф
Текст читал: Павел Кипнис и Александр Хорлин
Озвучено: Кириллица
Перевод: Профессиональный двуголосый
Продолжительность: ~ 00:44:32
Видеокодек: AVC
Битрейт видео: ~1480 kb/s
Размер кадра: 704 x 400
Качество видео: SATRip
Аудиокодек: MP3, 2ch.
Битрейт аудио: 192 kb/s

MediaInfo

Формат : Matroska
Версия формата : Version 1
Размер файла : 543 Мбайт
Продолжительность : 44 м.
Общий поток : 1706 Кбит/сек
Дата кодирования : UTC 2013-03-18 09:20:55
Библиотека кодирования : WonderShare Matroska Muxer
Видео
Идентификатор : 1
Формат : AVC
Формат/Информация : Advanced Video Codec
Профиль формата : [url=mailto:[email protected]][email protected][/url]
Параметр CABAC формата : Нет
Параметр ReFrames формата : 1 кадр
Параметр GOP формата : M=1, N=25
Идентификатор кодека : V_MPEG4/ISO/AVC
Продолжительность : 44 м.
Битрейт : 1480 Кбит/сек
Ширина : 704 пикселя
Высота : 400 пикселей
Соотношение сторон : 16:9
Частота кадров : 25,000 кадров/сек
Цветовое пространство : YUV
Субдискретизация насыщенности : 4:2:0
Битовая глубина : 8 бит
Тип развёртки : Прогрессивная
Бит/(Пиксели*Кадры) : 0.210
Размер потока : 471 Мбайт (87%)
Библиотека кодирования : T; Ші
Default : Да
Forced : Нет
Аудио
Идентификатор : 2
Формат : MPEG Audio
Версия формата : Version 1
Профиль формата : Layer 3
Режим : Joint stereo
Расширение режима : MS Stereo
Идентификатор кодека : A_MPEG/L3
Идентификатор кодека/Подсказка : MP3
Продолжительность : 44 м.
Вид битрейта : Постоянный
Битрейт : 192 Кбит/сек
Каналы : 2 канала
Частота : 48,0 КГц
Метод сжатия : С потерями
Задержка видео : 52 мс.
Размер потока : 61,2 Мбайт (11%)
Библиотека кодирования : LAME3.97
Default : Да
Forced : Нет
Скриншоты:                    
Other forum [Profile] [PM]
Similar theme
Forum Topic Author Torrent Replies Last Post
./templates/default/images/folder_dl.gif Обучающая и научно-популярная литература Лотман Юрий Михайлович - "Письма русского путешественника" Карамзина и их место в развитии русской культуры [И. В. Калинин (ЛИ), (ЛИ), 1987 г., 192 kbps, MP3] Omen
1 | 0

0 | 738

1

2015-11-20 15:00
Omen Latest
Display posts from previous:    
Reply to topic

The time now is: Today 16:15

All times are GMT + 3 Hours



You cannot post new topics in this forum
You cannot reply to topics in this forum
You cannot edit your posts in this forum
You cannot delete your posts in this forum
You cannot vote in polls in this forum
You cannot attach files in this forum
You cannot download files in this forum