Today is a free download without charge Download

Гремящий гром / Раскаты грома / Rolling Thunder (Джон Флинн / John Flynn) [1977, США, боевик, триллер, драма, криминал, BDRip 720p] DVO (НТВ+) + VO (Багичев) + Original

Reply to topic
 
Author
Message

Omen ®

Longevity: 8 years 5 months

Posts: 181087

Торрент-статистика

Post 22-Mar-2013 03:21

[Quote]

Гремящий гром / Раскаты грома / Rolling Thunder- Год выпуска: 1977
Страна: США
Жанр: боевик, триллер, драма, криминал
Продолжительность: 01:39:48
Перевод 1: Профессиональный (двухголосый, закадровый) НТВ+
Перевод 2: Одноголосый закадровый А.Багичев
Оригинальная звуковая дорожка: English
Cубтитры: нет-Режиссер: Джон Флинн / John Flynn
В ролях: Уильям Дивэйн, Томми Ли Джонс, Линда Хэйнс, Джеймс Бест, Дэбни Коулмен, Лиза Блейк Ричардс, Люк Аскью, Лорасон Дрисколл, Джеймс Виктор, Кэсси Йэтс
Описание: Когда майор Чарлз Рейни возвращается из Вьетнама в родной Техас, его встречают как героя. Он и его друг Джонни Воден восемь лет мучились в плену. Чарли получил кадиллак с открытым верхом, пару тысяч долларов и новость о том, что его жена с другим. Взорвался Чарли после того, как бандиты отняли у него наградные, убили сына и изуродовали руку. Ребята явно не на того нарвались. Имея стальной крюк вместо руки, он вместе со своим другом Джонни загружает в свою машину целый арсенал, и они начинают методически уничтожать убийц...-Релиз: by Skazhutin
Формат: MKV
Видео: 1280x694 at 23.976 fps, [email protected], ~9327 kbps avg
Аудио #1: Russian: 48 kHz, AC3, 2/0 (L,R) ch, ~192.00 kbps avg
Аудио #2: Russian: 48 kHz, AC3, 2/0 (L,R) ch, ~192.00 kbps avg
Аудио #3: English: 48 kHz, DTS, 3/2 (L,C,R,l,r) + LFE ch, ~768.00 kbps avg
Семпл-

Кадры из фильма


-

mInfo


Формат : Matroska
Версия формата : Version 4 / Version 2
Размер файла : 7,45 Гбайт
Продолжительность : 1 ч. 39 м.
Общий поток : 10,7 Мбит/сек
Дата кодирования : UTC 2013-03-21 05:21:05
Программа кодирования : mkvmerge v6.0.0 ('Coming Up For Air') built on Jan 20 2013 09:52:00
Библиотека кодирования : libebml v1.3.0 + libmatroska v1.4.0
Видео
Идентификатор : 1
Формат : AVC
Формат/Информация : Advanced Video Codec
Профиль формата : [email protected]
Параметр CABAC формата : Да
Параметр ReFrames формата : 11 кадров
Идентификатор кодека : V_MPEG4/ISO/AVC
Продолжительность : 1 ч. 39 м.
Битрейт : 9341 Кбит/сек
Ширина : 1280 пикселей
Высота : 694 пикселя
Соотношение сторон : 16:9
Частота кадров : 23,976 кадра/сек
Цветовое пространство : YUV
Субдискретизация насыщенности : 4:2:0
Битовая глубина : 8 бит
Тип развёртки : Прогрессивная
Бит/(Пиксели*Кадры) : 0.439
Размер потока : 6,51 Гбайт (87%)
Библиотека кодирования : x264 core 130 r2273kMod b3065e6
Настройки программы : cabac=1 / ref=11 / deblock=1:-3:-3 / analyse=0x3:0x113 / me=umh / subme=11 / psy=1 / fade_compensate=0.00 / psy_rd=0.95:0.10 / mixed_ref=1 / me_range=48 / chroma_me=1 / trellis=2 / 8x8dct=1 / cqm=0 / deadzone=21,11 / fast_pskip=1 / chroma_qp_offset=-3 / threads=6 / lookahead_threads=1 / sliced_threads=0 / nr=0 / decimate=1 / interlaced=0 / bluray_compat=0 / constrained_intra=0 / bframes=12 / b_pyramid=2 / b_adapt=2 / b_bias=0 / direct=3 / weightb=1 / open_gop=0 / weightp=2 / keyint=240 / keyint_min=23 / scenecut=40 / intra_refresh=0 / rc_lookahead=40 / rc=crf / mbtree=0 / crf=18.7500 / qcomp=0.75 / qpmin=0 / qpmax=69 / qpstep=4 / vbv_maxrate=50000 / vbv_bufsize=62500 / crf_max=0.0 / nal_hrd=none / ip_ratio=1.40 / pb_ratio=1.30 / aq=1:0.80
Язык : English
Коэффициенты матрицы : BT.709-5, BT.1361, IEC 61966-2-4 709, SMPTE RP177
Аудио #1
Идентификатор : 2
Формат : AC-3
Формат/Информация : Audio Coding 3
Расширение режима : CM (complete main)
Идентификатор кодека : A_AC3
Продолжительность : 1 ч. 39 м.
Вид битрейта : Постоянный
Битрейт : 192 Кбит/сек
Каналы : 2 канала
Расположение каналов : Front: L R
Частота : 48,0 КГц
Битовая глубина : 16 бит
Метод сжатия : С потерями
Размер потока : 137 Мбайт (2%)
Заголовок : Двухголосый закадровый, НТВ+
Язык : Russian
Аудио #2
Идентификатор : 3
Формат : AC-3
Формат/Информация : Audio Coding 3
Расширение режима : CM (complete main)
Идентификатор кодека : A_AC3
Продолжительность : 1 ч. 39 м.
Вид битрейта : Постоянный
Битрейт : 192 Кбит/сек
Каналы : 2 канала
Расположение каналов : Front: L R
Частота : 48,0 КГц
Битовая глубина : 16 бит
Метод сжатия : С потерями
Размер потока : 137 Мбайт (2%)
Заголовок : Одноголосый закадровый, А. Багичев
Язык : Russian
Аудио #3
Идентификатор : 4
Формат : DTS
Формат/Информация : Digital Theater Systems
Идентификатор кодека : A_DTS
Продолжительность : 1 ч. 39 м.
Вид битрейта : Постоянный
Битрейт : 755 Кбит/сек
Каналы : 1 канал
Расположение каналов : Front: C
Частота : 48,0 КГц
Битовая глубина : 24 бит
Метод сжатия : С потерями
Размер потока : 539 Мбайт (7%)
Язык : English
Меню
00:00:00.000 : en:00:00:00.000
00:07:35.078 : en:00:07:35.078
00:17:32.634 : en:00:17:32.634
00:29:03.741 : en:00:29:03.741
00:36:16.507 : en:00:36:16.507
00:42:44.061 : en:00:42:44.061
00:48:04.672 : en:00:48:04.672
00:55:59.064 : en:00:55:59.064
01:04:49.760 : en:01:04:49.760
01:13:17.475 : en:01:13:17.475
01:22:59.182 : en:01:22:59.182
01:28:37.687 : en:01:28:37.687
Other forum [Profile] [PM]
Display posts from previous:    
Reply to topic

The time now is: Today 10:07

All times are GMT + 3 Hours



You cannot post new topics in this forum
You cannot reply to topics in this forum
You cannot edit your posts in this forum
You cannot delete your posts in this forum
You cannot vote in polls in this forum
You cannot attach files in this forum
You cannot download files in this forum