Today is a free download without charge Download

Парни с пушками / Sons of Guns / Десантный дробовик (2012) SATRip

Reply to topic
 
Author
Message

UndegraundMen ®

Longevity: 7 years 7 months

Posts: 25145

Торрент-статистика

Post 21-Mar-2013 22:25

[Quote]

Парни с пушками / Sons of Guns / Десантный дробовик (2012) SATRip - Режиссер / Телекомпания: Discovery
Русское название: Парни с пушками
Оригинальное название: Sons of Guns
Год выпуска: 2012
Жанр: Телепередача
Описание:
Поступил заказ, на укороченный десантный дробовик. Вил добавил к заказу дробовик с улучшеной точностью.
Режиссёр: Zac McFarlane
Продюссер: Stephen Lang, Zak Weisfeld
Перевод: Одноголосый закадровый, профессиональный
Продолжительность: ~ 00:42:26
Видеокодек: MPEG-4
Битрейт видео: ~1350 kb/s
Размер кадра: 720 x 400
Качество видео: SATRip
Аудиокодек: AAC, 2ch.
Битрейт аудио: 317 kb/s

MediaInfo

Формат : MPEG-4
Профиль формата : Base Media
Идентификатор кодека : isom
Размер файла : 508 Мбайт
Продолжительность : 42 м.
Режим общего битрейта : Переменный
Общий поток : 1672 Кбит/сек
Программа кодирования : Lavf52.64.2
Видео
Идентификатор : 1
Формат : MPEG-4 Visual
Профиль формата : Advanced [email protected]
Параметр BVOP формата : Да
Параметр QPel формата : Нет
Параметр GMC формата : Без точки перехода
Параметр матрицы формата : Default (H.263)
Идентификатор кодека : 20
Продолжительность : 42 м.
Битрейт : 1350 Кбит/сек
Ширина : 720 пикселей
Высота : 480 пикселей
Соотношение сторон : 16:9
Режим частоты кадров : Постоянный
Частота кадров : 25,000 кадров/сек
Стандарт вещания : NTSC
Цветовое пространство : YUV
Битовая глубина : 8 бит
Тип развёртки : Чересстрочная
Порядок развёртки : Верхнее поле первое
Метод сжатия : С потерями
Бит/(Пиксели*Кадры) : 0.156
Размер потока : 410 Мбайт (81%)
Аудио
Идентификатор : 2
Формат : AAC
Формат/Информация : Advanced Audio Codec
Профиль формата : LC
Идентификатор кодека : 40
Продолжительность : 42 м.
Duration_LastFrame : -21 мс.
Вид битрейта : Переменный
Битрейт : 317 Кбит/сек
Каналы : 2 канала
Расположение каналов : Front: L R
Частота : 48,0 КГц
Метод сжатия : С потерями
Размер потока : 96,4 Мбайт (19%)
Язык : English
Скриншоты:          
Other forum [Profile] [PM]
Display posts from previous:    
Reply to topic

The time now is: Today 14:12

All times are GMT + 3 Hours



You cannot post new topics in this forum
You cannot reply to topics in this forum
You cannot edit your posts in this forum
You cannot delete your posts in this forum
You cannot vote in polls in this forum
You cannot attach files in this forum
You cannot download files in this forum