Today is a free download without charge Download

Время Синдбада / Сезон: 4 / Серии: 1-3 из 24 (Ким Дружинин, Ольга Кандидатова, Кирилл Капица) [2012, боевик, приключения, SATRip]

Reply to topic
 
Author
Message

Omen ®

Longevity: 9 years 1 month

Posts: 181086

Торрент-статистика

Post 21-Mar-2013 10:55

[Quote]

Время Синдбада-- Год выпуска: 2012
Производство: Форвард-Фильм, Прогресс-Студия
Жанр: боевик, приключения
Продолжительность: ~ 00:46:01
Субтитры: Нет
Режиссёр: Ким Дружинин, Ольга Кандидатова, Кирилл Капица
В ролях: Андрей Смелов, Валерий Гришко, Игорь Иванов, Яков Кучеревский, Александр Блок, Арсений Мыцык, Татьяна Шахматова, Маргарита Бычкова, Андрей Аверков, Марьяна Анохина, Петр Капица (II)
Описание: Российским спецслужбам удается сорвать планы владельца крупного оружейного концерна Хвостова, который решил ради прибыли спровоцировать в Европе новый виток гонки вооружений. Хвостов играет по-крупному - организует убийство несговорчивого российского спецпредставителя при НАТО и взрыв в штаб-квартире организации в Брюсселе. Синдбаду, Щепкину и Неверову придётся заняться этим делом. Также их команде придётся участвовать в обезвреживании международной преступной группы.
Сэмпл: http://multi-up.com/845078
Качество: SATRip
Формат: AVI
Видео кодек: XviD
Аудио кодек: MP3
Видео: 704x400 (16:9), 25 fps, XviD build 50 ~1470 kbps avg, 0.20 bit/pixel
Аудио: 48 kHz, MPEG Layer 3, 2 ch, ~192.00 kbps avg
Релиз от: КинозалSAT
Реклама отсутствует

Внимание! Раздача ведётся путём добавления новых серий!

Внимание! Раздача ведётся путём добавления новых серий; при каждом добавлении создётся новый торрент.
Чтобы начать докачку новой серии, пользователям необходимо сделать следующее:
1) остановить скачивание
2) удалить старый торрент у себя из клиента (старые серии удалять не надо)
3) скачать новый торрент и запустить его у себя в клиенте вместо старого, при этом указать клиенту путь в старую папку куда и должно происходить скачивание новых серий.
Ваш клиент при этом должен произвести хеширование (проверку) старой папки (если не производит сам - помогите ему сделать это), и будет докачивать только те серии которых у вас ещё нет. Старые серии при этом не удаляются, а продолжают раздаваться!
Eсли вы уже удалили старые серии, то предотвратить повторную закачку старых серий можно, отжав галочку в соответствовавших местах при запуске нового торрента.

MI

General
Complete name : Wremya.sindbada.2012.SATRip.KinozalSAT\Wremya.sindbada.01.2012.SATRip.KinozalSAT.avi
Format : AVI
Format/Info : Audio Video Interleave
File size : 550 MiB
Duration : 46mn 1s
Overall bit rate : 1 671 Kbps
Writing application : VirtualDubMod 1.5.4.1 (build 2178/release)
Writing library : VirtualDubMod build 2178/release
Video
ID : 0
Format : MPEG-4 Visual
Format profile : Advanced [email protected]
Format settings, BVOP : 1
Format settings, QPel : No
Format settings, GMC : No warppoints
Format settings, Matrix : Custom
Codec ID : XVID
Codec ID/Hint : XviD
Duration : 46mn 1s
Bit rate : 1 471 Kbps
Width : 704 pixels
Height : 400 pixels
Display aspect ratio : 16:9
Frame rate : 25.000 fps
Color space : YUV
Chroma subsampling : 4:2:0
Bit depth : 8 bits
Scan type : Progressive
Compression mode : Lossy
Bits/(Pixel*Frame) : 0.209
Stream size : 484 MiB (88%)
Writing library : XviD 64
Audio
ID : 1
Format : MPEG Audio
Format version : Version 1
Format profile : Layer 3
Mode : Joint stereo
Mode extension : MS Stereo
Codec ID : 55
Codec ID/Hint : MP3
Duration : 46mn 1s
Bit rate mode : Constant
Bit rate : 192 Kbps
Channel(s) : 2 channels
Sampling rate : 48.0 KHz
Compression mode : Lossy
Stream size : 63.2 MiB (11%)
Alignment : Aligned on interleaves
Interleave, duration : 80 ms (2.00 video frames)
Interleave, preload duration : 504 ms
Writing library : LAME3.97
Encoding settings : -m j -V 4 -q 2 -lowpass 18.6 -b 192

Скриншоты

Other forum [Profile] [PM]
Display posts from previous:    
Reply to topic

The time now is: Today 05:58

All times are GMT + 3 Hours



You cannot post new topics in this forum
You cannot reply to topics in this forum
You cannot edit your posts in this forum
You cannot delete your posts in this forum
You cannot vote in polls in this forum
You cannot attach files in this forum
You cannot download files in this forum