Today is a free download without charge Download

Киллер Джо / Killer Joe (Уильям Фр)(Триллер, комедия, криминал2011) BDRip 1080p | Лицензия

Reply to topic
 
Author
Message

KirovSOFT ®

Gender:

Longevity: 9 years

Posts: 998

Location: Кировская область -Оричи

Торрент-статистика

Post 21-Mar-2013 09:14

[Quote]

Киллер Джо / Killer Joe

Название: Киллер Джо
Оригинальное название: Killer Joe
Год выпуска: 2011
Жанр: Триллер, комедия, криминал
Выпущено: США, ANA Media, Voltage Pictures, Worldview Entertainment
Режиссер: Уильям Фридкин
Продолжительность: 01:42:20
Перевод: Дублированный
В ролях: Мэттью МакКонахи, Эмиль Хирш, Джуно Темпл, Томас Хейден Черч, Джина Гершон, Скотт А. Мартин, Грэйлен Брайант Бэнкс, Кэрол Саттон, Дэнни Эппер, Джефф Галпин, Марк Маколей, Грегори С. Башо, Чарли Вэнс, Джулия Адамс, Блэйн Санчез


«Киллер Джо» — камерная трагикомедия, причем реализованная в довольно таки специфическом жанре криминального триллера. Подобного рода картины встречаются не так уж и часто, чаще с двумя персонажами, здесь же целых пять. Задолжавший кучу денег герой Эмиля Хирша где-то услышал информацию о том, что его непутёвая мамаша застрахована на пятьдесят тысяч долларов. Сообразив себе ситуацию, из которой он сможет рассчитаться с долгами, плюс дать своему отцу и сестре заработать, он приглашает на сделку некого детектива по имени Джо, который ко всему прочему подзарабатывает еще и отправкой людей на тот свет.

Качество: BDRip (1080p)
Видео: MPEG-4 AVC, 13.9 Мбит/с, 1920x1040, 23.976 кадр/с
Аудио: Русский (AC3, 6 ch, 448 Кбит/с), английский (DTS, 6 ch, 1510 Кбит/c)
Размер: 11.32 ГБ
Субтитры: Русские, английские

MediaInfo:

Общее
Уникальный идентификатор : 222551975941756679764722097979803373572 (0xA76DF39333C4F7F0A9C41F7270051004)
Полное имя : D:Mои раздачиKiller.Dzho.2012.BDRip.(1080p).mkv
Формат : Matroska
Версия формата : Version 2
Размер файла : 11,3 Гбайт
Продолжительность : 1 ч. 42 м.
Общий поток : 15,8 Мбит/сек
Дата кодирования : UTC 2013-03-20 18:26:51
Программа кодирования : mkvmerge v5.7.0 ('The Whirlwind') built on Aug 7 2012 14:11:40
Библиотека кодирования : libebml v1.2.3 + libmatroska v1.3.0
Видео
Идентификатор : 1
Формат : AVC
Формат/Информация : Advanced Video Codec
Профиль формата : [email protected]
Параметр CABAC формата : Да
Параметр ReFrames формата : 4 кадра
Идентификатор кодека : V_MPEG4/ISO/AVC
Продолжительность : 1 ч. 42 м.
Битрейт : 13,9 Мбит/сек
Ширина : 1920 пикселей
Высота : 1040 пикселей
Соотношение сторон : 1,85:1
Режим частоты кадров : Постоянный
Частота кадров : 23,976 кадра/сек
Цветовое пространство : YUV
Субдискретизация насыщенности : 4:2:0
Битовая глубина : 8 бит
Тип развёртки : Прогрессивная
Бит/(Пиксели*Кадры) : 0.290
Размер потока : 9,69 Гбайт (86%)
Заголовок : Killer.Joe.2011.1080p.BluRay.DTS.x264-HiDt
Библиотека кодирования : x264 core 128 r2216 198a7ea
Настройки программы : cabac=1 / ref=4 / deblock=1:-3:-3 / analyse=0x3:0x113 / me=tesa / subme=11 / psy=1 / psy_rd=0.99:0.00 / mixed_ref=1 / me_range=32 / chroma_me=1 / trellis=2 / 8x8dct=1 / cqm=0 / deadzone=21,11 / fast_pskip=0 / chroma_qp_offset=-2 / threads=12 / lookahead_threads=2 / sliced_threads=0 / nr=0 / decimate=1 / interlaced=0 / bluray_compat=0 / constrained_intra=0 / bframes=8 / b_pyramid=2 / b_adapt=2 / b_bias=0 / direct=3 / weightb=1 / open_gop=0 / weightp=2 / keyint=240 / keyint_min=23 / scenecut=40 / intra_refresh=0 / rc_lookahead=40 / rc=2pass / mbtree=1 / bitrate=13876 / ratetol=1.0 / qcomp=0.67 / qpmin=0 / qpmax=69 / qpstep=4 / cplxblur=20.0 / qblur=0.5 / ip_ratio=1.40 / aq=1:0.90
Язык : English
Default : Нет
Forced : Нет
Аудио #1
Идентификатор : 2
Формат : AC-3
Формат/Информация : Audio Coding 3
Расширение режима : CM (complete main)
Параметр Endianness формата : Big
Идентификатор кодека : A_AC3
Продолжительность : 1 ч. 42 м.
Вид битрейта : Постоянный
Битрейт : 448 Кбит/сек
Каналы : 6 каналов
Расположение каналов : Front: L C R, Side: L R, LFE
Частота : 48,0 КГц
Битовая глубина : 16 бит
Метод сжатия : С потерями
Размер потока : 328 Мбайт (3%)
Заголовок : Дубляж
Язык : Russian
Default : Да
Forced : Да
Аудио #2
Идентификатор : 3
Формат : DTS
Формат/Информация : Digital Theater Systems
Идентификатор кодека : A_DTS
Продолжительность : 1 ч. 42 м.
Вид битрейта : Постоянный
Битрейт : 1510 Кбит/сек
Каналы : 6 каналов
Расположение каналов : Front: L C R, Side: L R, LFE
Частота : 48,0 КГц
Битовая глубина : 24 бит
Метод сжатия : С потерями
Размер потока : 1,08 Гбайт (10%)
Заголовок : Оригинал
Язык : English
Default : Нет
Forced : Нет
Текст #1
Идентификатор : 4
Формат : UTF-8
Идентификатор кодека : S_TEXT/UTF8
Идентификатор кодека/Информация : UTF-8 Plain Text
Заголовок : Sub-Mokum
Язык : Russian
Default : Нет
Forced : Нет
Текст #2
Идентификатор : 5
Формат : UTF-8
Идентификатор кодека : S_TEXT/UTF8
Идентификатор кодека/Информация : UTF-8 Plain Text
Заголовок : Sub-Jbravo
Язык : Russian
Default : Нет
Forced : Нет
Текст #3
Идентификатор : 6
Формат : UTF-8
Идентификатор кодека : S_TEXT/UTF8
Идентификатор кодека/Информация : UTF-8 Plain Text
Заголовок : Sub-ak79
Язык : Russian
Default : Нет
Forced : Нет
Текст #4
Идентификатор : 7
Формат : UTF-8
Идентификатор кодека : S_TEXT/UTF8
Идентификатор кодека/Информация : UTF-8 Plain Text
Заголовок : Sub
Язык : English
Default : Нет
Forced : Нет
Меню
00:00:00.000 : en:Chapter 01
00:05:22.530 : en:Chapter 02
00:11:46.288 : en:Chapter 03
00:12:40.968 : en:Chapter 04
00:20:10.209 : en:Chapter 05
00:25:42.040 : en:Chapter 06
00:30:17.524 : en:Chapter 07
00:33:37.557 : en:Chapter 08
00:40:12.618 : en:Chapter 09
00:46:02.634 : en:Chapter 10
00:51:38.678 : en:Chapter 11
00:55:13.852 : en:Chapter 12
01:00:56.027 : en:Chapter 13
01:06:22.895 : en:Chapter 14
01:10:40.986 : en:Chapter 15
01:12:07.156 : en:Chapter 16
01:15:33.362 : en:Chapter 17
01:20:32.953 : en:Chapter 18
01:31:05.585 : en:Chapter 19
01:37:55.870 : en:Chapter 20

     
 

_________________
Other forum [Profile] [PM]
Display posts from previous:    
Reply to topic

The time now is: Today 19:57

All times are GMT + 3 Hours



You cannot post new topics in this forum
You cannot reply to topics in this forum
You cannot edit your posts in this forum
You cannot delete your posts in this forum
You cannot vote in polls in this forum
You cannot attach files in this forum
You cannot download files in this forum