Today is a free download without charge Download

Махинаторы (Автодилеры). Сезон №9. Выпуск №6 / Wheeler Dealers. Mercedes-Benz G-Wagen (2012) HDTVRip [H.264/720p]

Reply to topic
 
Author
Message

UndegraundMen ®

Longevity: 7 years 7 months

Posts: 25145

Торрент-статистика

Post 20-Mar-2013 23:39

[Quote]

Махинаторы (Автодилеры). Сезон №9. Выпуск №6 / Wheeler Dealers. Mercedes-Benz G-Wagen (2012) HDTVRip [H.264/720p]- Режиссер / Телекомпания: Discovery
Русское название: Махинаторы (Автодилеры)
Оригинальное название: Wheeler Dealers
Год выпуска: 2012
Жанр: Документальный, научно-познавательный, история, автомобилестроение
Описание:
Суть передачи такова: ведущий покупает старенькую машину-автоклассику за небольшие деньги и передает ее механику-профессионалу, чтобы тот, в свою очередь, восстановил ее до приличного состояния, уложившись при этом в определенный бюджет. Далее ведущий попытается продать авто, за сумму перекрывающую расходы на ее покупку и ремонт, и постарается остаться даже в небольшой прибыли от подобного рода "махинации", а как это у них получиться, смотрите сами...
В выпуске: Mercedes-Benz G-Wagen
Режиссёр: Уоррен Грин
Ведущий: Майк Брюэр и Эд Хина
Перевод: Профессиональный одноголосый закадровый
Выпущено: Великобритания, Attaboy TV LTD for Discovery Channel
Продолжительность: ~ 00:43:41
Видеокодек: AVC
Битрейт видео: ~3500 kb/s
Размер кадра: 1280 x 720
Качество видео: HDTVRip
Аудиокодек: AC-3, 2ch.
Битрейт аудио: 192 kb/s

MediaInfo

Формат : Matroska
Версия формата : Version 4 / Version 2
Размер файла : 1,14 Гбайт
Продолжительность : 43 м.
Общий поток : 3735 Кбит/сек
Дата кодирования : UTC 2013-03-04 09:34:49
Программа кодирования : mkvmerge v6.1.0 ('Old Devil') built on Mar 2 2013 14:32:37
Библиотека кодирования : libebml v1.3.0 + libmatroska v1.4.0
Видео
Идентификатор : 1
Формат : AVC
Формат/Информация : Advanced Video Codec
Профиль формата : [url=mailto:[email protected]][email protected][/url]
Параметр CABAC формата : Да
Параметр ReFrames формата : 4 кадра
Идентификатор кодека : V_MPEG4/ISO/AVC
Продолжительность : 43 м.
Битрейт : 3500 Кбит/сек
Ширина : 1280 пикселей
Высота : 720 пикселей
Соотношение сторон : 16:9
Частота кадров : 25,000 кадров/сек
Цветовое пространство : YUV
Субдискретизация насыщенности : 4:2:0
Битовая глубина : 8 бит
Тип развёртки : Прогрессивная
Бит/(Пиксели*Кадры) : 0.152
Размер потока : 1,06 Гбайт (93%)
Библиотека кодирования : x264 core 116 r2074 2641b9e
Настройки программы : cabac=1 / ref=2 / deblock=1:0:0 / analyse=0x3:0x113 / me=hex / subme=4 / psy=1 / psy_rd=1.00:0.00 / mixed_ref=1 / me_range=16 / chroma_me=1 / trellis=0 / 8x8dct=1 / cqm=0 / deadzone=21,11 / fast_pskip=1 / chroma_qp_offset=0 / threads=6 / sliced_threads=0 / nr=0 / decimate=1 / interlaced=0 / bluray_compat=0 / constrained_intra=0 / bframes=3 / b_pyramid=2 / b_adapt=1 / b_bias=0 / direct=3 / weightb=1 / open_gop=0 / weightp=2 / keyint=250 / keyint_min=25 / scenecut=40 / intra_refresh=0 / rc_lookahead=40 / rc=abr / mbtree=1 / bitrate=3500 / ratetol=1.0 / qcomp=0.60 / qpmin=10 / qpmax=51 / qpstep=4 / vbv_maxrate=50000 / vbv_bufsize=50000 / nal_hrd=none / ip_ratio=1.40 / aq=1:1.00
Default : Да
Forced : Нет
Аудио
Идентификатор : 2
Формат : AC-3
Формат/Информация : Audio Coding 3
Расширение режима : CM (complete main)
Идентификатор кодека : A_AC3
Продолжительность : 43 м.
Вид битрейта : Постоянный
Битрейт : 192 Кбит/сек
Каналы : 2 канала
Расположение каналов : Front: L R
Частота : 48,0 КГц
Битовая глубина : 16 бит
Метод сжатия : С потерями
Размер потока : 60,0 Мбайт (5%)
Default : Да
Forced : Нет
Скриншоты:          
Other forum [Profile] [PM]
Display posts from previous:    
Reply to topic

The time now is: Today 05:55

All times are GMT + 3 Hours



You cannot post new topics in this forum
You cannot reply to topics in this forum
You cannot edit your posts in this forum
You cannot delete your posts in this forum
You cannot vote in polls in this forum
You cannot attach files in this forum
You cannot download files in this forum