Today is a free download without charge Download

Марьина роща / Серии: 01-02 из 16 (Александр Хван) [2012, Детектив, HDTV 1080i]

Reply to topic
 
Author
Message

Omen ®

Longevity: 9 years 1 month

Posts: 181086

Торрент-статистика

Post 20-Mar-2013 22:47

[Quote]

Марьина роща
Год выпуска: 2012
Производство: "Мостелефильм"
Жанр: Детектив
Продолжительность: ~ 00:45:00
Субтитры: Отсутствуют
Режиссёр: Александр Хван
В ролях: Александр Домогаров, Евгения Крюкова, Виталий Кудрявцев, Сергей Комаров, Савва Гусев, Елена Доронина, Яна Львова, Наталья Литвинова, Виктор Тереля, Дмитрий Смирнов, Артем Лысков, Виталий Горшков, Виктор Маркин, Олег Алмазов, Сергей Потапов, Юрий Шлыков, Борис Романов, Константин Желдин, Петр Зайченко, Ольга Науменко, Татьяна Мухина, Егор Баринов, Людмила Давыдова, Ирина Гордина, Полина Лунегова, Татьяна Чернопятова, Алексей Михайлов, Ксения Баринова, Игорь Филиппов, Дмитрий Гусев, Евгений Харланов, Михаил Горский, Анастасия Платонова, Сергей Дьячков, Константин Глушков, Михаил Солодко, Максим Макаров, Игорь Огурцов и другие.
Описание: Вернувшись после победы с фронта оперативник МУРА Константин Трошин узнает, что там он больше не работает. А причина — в конфликте с влиятельным генералом НКГБ. Но Трошин не намерен отступать, так как без работы в органах жизнь его теряет всякий смысл. Он устраивается на работу в самом неблагополучном районе Москвы — Марьиной Роще. И там же из-зи личных проблем поселиться жить в коммуналке. Таким образом, Трошин оказался в самом центре криминальной среды. Он тесно сходится с ее обитателями. И, может быть, из-за этого ему удается раскрывать самые дерзкие и хладнокровные преступления. Убийства, налеты и аферы — здесь не в новинку. Но Трошин хочет идти дальше и искоренить преступление как таковое. А люди в ответ на его желание идут к нему, как третейскому судье, они доверяют ему, когда надо отделять добро от зла.
Сэмпл: http://multi-up.com/845023

Рип чистый (Прямой поток). Без посторонних надписей. Выкладывается как есть.
Качество: HDTV 1080i
Контейнер: TS
Видео кодек: AVC
Аудио кодек: AC3
Видео: 1920x1080 (16:9) 25.000 fps 7 856 Kbps, 0.151 bit/pixel
Аудио: MPEG Audio 48000Hz stereo 192 Кбит/сек

Скриншоты


MI

GeneralID : 1 (0x1)Complete name : N:\ВЫКЛАДКА\HDTV\Сериалы\Марьина роща (2012, Детектив, HDTV) (MYDIMKA)\01 серия.tsFormat : MPEG-TSFile size : 2.62 GiBDuration : 44mn 23sOverall bit rate mode : VariableOverall bit rate : 8 448 Kbps
VideoID : 2911 (0xB5F)Menu ID : 1 (0x1)Format : AVCFormat/Info : Advanced Video CodecFormat profile : [email protected] settings, CABAC : YesFormat settings, ReFrames : 3 framesFormat settings, GOP : M=3, N=30Codec ID : 27Duration : 44mn 23sBit rate : 7 837 KbpsWidth : 1 920 pixelsHeight : 1 080 pixelsDisplay aspect ratio : 16:9Frame rate : 25.000 fpsColor space : YUVChroma subsampling : 4:2:0Bit depth : 8 bitsScan type : MBAFFBits/(Pixel*Frame) : 0.151Stream size : 2.43 GiB (93%)
AudioID : 2912 (0xB60)Menu ID : 1 (0x1)Format : MPEG AudioFormat version : Version 1Format profile : Layer 2Codec ID : 3Duration : 44mn 23sBit rate mode : ConstantBit rate : 192 KbpsChannel(s) : 2 channelsSampling rate : 48.0 KHzCompression mode : LossyStream size : 61.0 MiB (2%)Language : Russian

Внимание! Раздача ведётся путём добавления новых выпусков

Внимание! Раздача ведётся путём добавления новых выпусков; при каждом добавлении создётся новый торрент. Чтобы начать докачку нового выпуска, пользователям необходимо сделать следующее:
(1) остановить скачивание,
(2) удалить старый торрент у себя из клиента (старые выпуски удалять не надо),
(3) скачать новый торрент и запустить его у себя в клиенте вместо старого, при этом указать клиенту путь в старую папку куда и должно происходить скачивание новых выпусков.
Ваш клиент при этом должен произвести хеширование (проверку) старой папки (если не производит сам - помогите ему сделать это), и будет докачивать только те выпуски которых у вас ещё нет. Старые выпуски при этом не удаляются, а продолжают раздаваться!
Eсли вы уже удалили старые выпуски, то предотвратить повторную закачку старых выпусков можно, отжав галочку в соответсвующих местах при запуске нового торрента. По возможности, желательно не удалять старые выпуски как можно дольше чтобы релизёр не столько продолжал раздавать старые выпуски, а смог сконцентрироваться на новых.
Other forum [Profile] [PM]
Display posts from previous:    
Reply to topic

The time now is: Today 00:03

All times are GMT + 3 Hours



You cannot post new topics in this forum
You cannot reply to topics in this forum
You cannot edit your posts in this forum
You cannot delete your posts in this forum
You cannot vote in polls in this forum
You cannot attach files in this forum
You cannot download files in this forum