Today is a free download without charge Download

Тайны следствия / Сезон: 12 Серии: 1 из 12 (Рената Грицкова) [2013, Детектив, HDTVRip]

Reply to topic
 
Author
Message

Omen ®

Longevity: 9 years 1 month

Posts: 181086

Торрент-статистика

Post 20-Mar-2013 22:47

[Quote]

Тайны следствия - 12
Год выпуска: 2013
Производство: "Форвард-Фильм"
Жанр: Детектив
Продолжительность: ~ 00:45:00
Субтитры: нет--Режиссёр: Рената Грицкова--В ролях: Анна Ковальчук, Вячеслав Захаров, Игорь Николаев (II), Александр Новиков (III), Игорь Григорьев (IV), Ольга Павловец, Мирослав Малич, Злата Ильченко, Игорь Соплин, Александр Шпилько, Андрей Шарков, Светлана Щедрина, Юлия Яковлева, Олег Алмазов, Дмитрий Поднозов, Александр Овчинников (III)--Описание:Мария Швецова продолжает трудиться в районном следственном комитете под руководством Николая Филонова. Каждый день становится для неё настоящим испытанием, ведь ей приходится бороться не только и не столько с преступностью, сколько с косностью и откровенным саботажем реальной следственной работы со стороны руководства. К счастью, коллеги и друзья не оставляют Машу в трудную минуту. Новый следователь Колонкова, с которой Швецова уже успела подружиться, Кораблёв, вернувшийся на службу в полицию, и неизменный друг и учитель Ковин всегда помогут ей в любом самом сложном деле. Кроме того, дома её ждёт дружная семья, вновь пополнившаяся вернувшимся из Англии старшим сыном Швецовой Костиком.-Сэмпл: http://sendfile.su/781356
Качество: HDTVRip
Формат: AVI
Видео кодек: XviD
Аудио кодек: MP3
Видео: MPEG4, XviD, 720x400 (16/9), 25.000 fps, 1 613 Kbps (0.224 bit/pixel)
Аудио: MP3, 48.0 KHz, 2 ch, 128 Kbps, CBR

MI

General
Complete name : I:\Тайны следствия 12\01 серия.avi
Format : AVI
Format/Info : Audio Video Interleave
File size : 551 MiB
Duration : 43mn 59s
Overall bit rate : 1 751 Kbps
Writing application : VirtualDubMod 1.5.10.3 | www.virtualdub-fr.org || (build 2550/release)
Writing library : VirtualDubMod build 2550/release
Video
ID : 0
Format : MPEG-4 Visual
Format profile : Advanced [email protected]
Format settings, BVOP : 1
Format settings, QPel : No
Format settings, GMC : No warppoints
Format settings, Matrix : Custom
Codec ID : XVID
Codec ID/Hint : XviD
Duration : 43mn 59s
Bit rate : 1 613 Kbps
Width : 720 pixels
Height : 400 pixels
Display aspect ratio : 16:9
Frame rate : 25.000 fps
Color space : YUV
Chroma subsampling : 4:2:0
Bit depth : 8 bits
Scan type : Progressive
Compression mode : Lossy
Bits/(Pixel*Frame) : 0.224
Stream size : 508 MiB (92%)
Writing library : XviD 63
Audio
ID : 1
Format : MPEG Audio
Format version : Version 1
Format profile : Layer 3
Mode : Joint stereo
Mode extension : MS Stereo
Codec ID : 55
Codec ID/Hint : MP3
Duration : 43mn 59s
Bit rate mode : Constant
Bit rate : 128 Kbps
Channel(s) : 2 channels
Sampling rate : 48.0 KHz
Compression mode : Lossy
Stream size : 40.3 MiB (7%)
Alignment : Aligned on interleaves
Interleave, duration : 40 ms (1.00 video frame)
Interleave, preload duration : 504 ms

Скриншоты



Раздача ведётся путём добавления новых серий

Раздача ведётся путём добавления новых серий; при каждом добавлении создаётся новый торрент. Чтобы начать докачку новой серии, пользователям необходимо сделать следующее:
(1) остановить скачивание,
(2) удалить старый торрент у себя из клиента (старые серии удалять не надо),
(3) скачать новый торрент и запустить его у себя в клиенте вместо старого, при этом указать клиенту путь в старую папку куда и должно происходить скачивание новых серий.
Ваш клиент при этом должен произвести хеширование (проверку) старой папки (если не производит сам - помогите ему сделать это), и будет докачивать только те серии которых у вас ещё нет. Старые серии при этом не удаляются, а продолжают раздаваться!
Eсли вы уже удалили старые серии, то предотвратить повторную закачку старых серий можно, отжав галочку в соответствующих местах при запуске нового торрента. По возможности, желательно не удалять старые серии как можно дольше чтобы релизёр не столько продолжал раздавать старые серии, а смог сконцентрироваться на новых.
Other forum [Profile] [PM]
Similar theme
Forum Topic Author Torrent Replies Last Post
./templates/default/images/folder_dl.gif Отечественные cериалы Тайный город / Сезон: 1 / Серии: 1-8 из 8 (Александр Мохов) [2014 г., фэнтези,, DVDRip] Omen
1 | 0

0 | 1122

6

2014-09-30 11:00
Omen Latest
./templates/default/images/folder_dl.gif Приключения и квесты Secrets of the Dark: The Flower of Shadow Collector\'s Edition / Тайны Тьмы: Цветок Теней. Коллекционное издание [P] [RUS / ENG] (2014) Omen
1 | 0

0 | 2226

23

2015-06-11 12:04
Omen Latest
Display posts from previous:    
Reply to topic

The time now is: Today 05:32

All times are GMT + 3 Hours



You cannot post new topics in this forum
You cannot reply to topics in this forum
You cannot edit your posts in this forum
You cannot delete your posts in this forum
You cannot vote in polls in this forum
You cannot attach files in this forum
You cannot download files in this forum