Today is a free download without charge Download

Должник / The Liability (Крэйг Вивейрос / Craig Viveiros) [2012, Великобритания, триллер, криминал, WEB-DL 720p] VO (А. Киреев) + Sub Rus (Doctor Joker) + Original Eng

Reply to topic
 
Author
Message

Omen ®

Longevity: 8 years 5 months

Posts: 181087

Торрент-статистика

Post 20-Mar-2013 22:47

[Quote]

Должник
The Liability-Страна: Великобритания
Жанр: триллер, криминал
Год выпуска: 2012
Продолжительность: 01:26:06-Перевод: Алексей Doctor_Joker Матвеев
Озвучание: Антон Киреев (одноголосый закадровый войсовер, ненормативная лексика)
Cубтитры: русские (Doctor_Joker)-Режиссер: Крэйг Вивейрос / Craig Viveiros
В ролях: Тим Рот, Джек О’Коннелл, Талула Райли, Питер Муллан, Фэй Вэрэйнг, Кристофер Хатрэлл, Дженни Пайк, Джек МакБрайд, Клив Шоу, Энди МакАдам.-Описание: Когда один тупорылый подросток разбивает машину любимого папы-бандита, любящий отец даёт сыну… нет, не совет водить машину аккуратнее, а люлей и наказывает стать помощником своего товарища (Тима Рота), который оказывается изощрённым киллером-контрактником. Но кто знал, что всё пойдёт не так как задумывалось из-за какой-то глупой девчонки? А чем всё в итоге кончится — смотрите в кино.

Доп. инфо о релизе:

Сведение дорожки / работа со звуком: Bloodymetall
Генеральный спонсор проекта: будулайроманов
Перевод доступен благодоря финансовой поддержке нижеперечисленных пользователей ресурса "Переулок Переводмана":
ana2363, rikkibobbi, добрый аноним, будулайроманов.
- -Качество видео: WEB-DL 720p (iTunes US)
Формат: MKV
Видео: x264, 1280x530 (2.40:1), 3889 kbps, 23,976 fps, 0.239 b/px
Аудио #1: Русский: AС3, 48.0 KHz, 384 kbps, 6 ch, 16-bit
Аудио #2: Оригинал: AС3, 48.0 KHz, 384 kbps, 6 ch, 16-bit
Формат субтитров: softsub (SRT)

MediaInfo

Общее
Уникальный идентификатор : 202931000591953331439077259689005056435 (0x98AB16CD30A2C744B139FD67F4F681B3)
Полное имя : Z:\The.Liability.2012.Web-DL.720p.VO.Kireev.mkv
Формат : Matroska
Версия формата : Version 1
Размер файла : 2,86 Гбайт
Продолжительность : 1 ч. 26 м.
Общий поток : 4751 Кбит/сек
Дата кодирования : UTC 2013-03-20 15:05:58
Программа кодирования : mkvmerge v2.4.2 ('Oh My God') built on Jan 18 2009 17:30:28
Библиотека кодирования : libebml v0.7.7 + libmatroska v0.8.1
Видео
Идентификатор : 1
Формат : AVC
Формат/Информация : Advanced Video Codec
Профиль формата : [email protected]
Параметр CABAC формата : Нет
Параметр ReFrames формата : 2 кадра
Идентификатор кодека : V_MPEG4/ISO/AVC
Продолжительность : 1 ч. 26 м.
Битрейт : 3889 Кбит/сек
Ширина : 1280 пикселей
Высота : 530 пикселей
Соотношение сторон : 2,40:1
Режим частоты кадров : Постоянный
Частота кадров : 23,976 кадра/сек
Цветовое пространство : YUV
Субдискретизация насыщенности : 4:2:0
Битовая глубина : 8 бит
Тип развёртки : Прогрессивная
Бит/(Пиксели*Кадры) : 0.239
Размер потока : 2,34 Гбайт (82%)
Заголовок : The Liability (2012)
Язык : English
Default : Да
Forced : Нет
Основные цвета : BT.709
Характеристики трансфера : BT.709
Коэффициенты матрицы : BT.709
Аудио #1
Идентификатор : 2
Формат : AC-3
Формат/Информация : Audio Coding 3
Расширение режима : CM (complete main)
Параметр Endianness формата : Big
Идентификатор кодека : A_AC3
Продолжительность : 1 ч. 26 м.
Вид битрейта : Постоянный
Битрейт : 384 Кбит/сек
Каналы : 6 каналов
Расположение каналов : Front: L C R, Side: L R, LFE
Частота : 48,0 КГц
Битовая глубина : 16 бит
Метод сжатия : С потерями
Размер потока : 236 Мбайт (8%)
Заголовок : VO Антон Киреев (по переводу Алексея Doctor_Joker Матвеева)
Язык : Russian
Default : Да
Forced : Нет
Аудио #2
Идентификатор : 3
Формат : AC-3
Формат/Информация : Audio Coding 3
Расширение режима : CM (complete main)
Параметр Endianness формата : Big
Идентификатор кодека : A_AC3
Продолжительность : 1 ч. 26 м.
Вид битрейта : Постоянный
Битрейт : 384 Кбит/сек
Каналы : 6 каналов
Расположение каналов : Front: L C R, Side: L R, LFE
Частота : 48,0 КГц
Битовая глубина : 16 бит
Метод сжатия : С потерями
Размер потока : 236 Мбайт (8%)
Заголовок : Original
Язык : English
Default : Нет
Forced : Нет
Текст
Идентификатор : 4
Формат : UTF-8
Идентификатор кодека : S_TEXT/UTF8
Идентификатор кодека/Информация : UTF-8 Plain Text
Заголовок : Алексей Doctor_Joker Матвеев
Язык : Russian
Default : Да
Forced : Нет
Меню
00:00:00.000 : en:1
00:04:09.000 : en:2
00:11:03.000 : en:3
00:22:06.000 : en:4
00:30:00.000 : en:5
00:40:18.000 : en:6
00:49:51.000 : en:7
00:57:15.000 : en:8
01:04:58.000 : en:9
01:14:16.000 : en:10
01:23:48.000 : en:11

Скриншоты



Other forum [Profile] [PM]
Display posts from previous:    
Reply to topic

The time now is: Today 11:34

All times are GMT + 3 Hours



You cannot post new topics in this forum
You cannot reply to topics in this forum
You cannot edit your posts in this forum
You cannot delete your posts in this forum
You cannot vote in polls in this forum
You cannot attach files in this forum
You cannot download files in this forum