Today is a free download without charge Download

Рассказы ( Михаил Сегал ) (2012, Драма, Комедия ) BDRip [1080p]

Reply to topic
 
Author
Message

Витек1 ®

Gender:

Longevity: 8 years 3 months

Posts: 451

Location: Житомир

Торрент-статистика

Post 20-Mar-2013 20:21

[Quote]

Рассказы - Русское название: Рассказы
Год выпуска: 2012
Производство: Россия
Жанр: Драма, Комедия
Перевод: Не требуется (Русский)
Субтитры: Отсутствуют
Режиссер: Михаил Сегал
Актеры: Андрей Мерзликин, Игорь Угольников, Тамара Миронова, Константин Юшкевич, Дарья Носик, Любовь Новикова, Владислав Лешкевич, Сергей Фетисов, Елена Нестерова, Василий Мичков, Павел Ремнёв, Дмитрий Хопёрский
Описание фильма:
Рукопись молодого писателя попадает в литературное издательство и начинает влиять на жизнь любого, кто откроет её и прочтет хотя бы страницу. Четыре рассказа из рукописи — это четыре истории с непредсказуемой развязкой.

Дата российской премьеры: 15 ноября 2012, «WDSSPR»
Дата выхода DVD релиза: 14 марта 2013, «Мистерия Звука»
Дата выхода Blu-Ray релиза: 14 марта 2013, «Мистерия Звука»
Продолжительность: 01:50:17
Качество видео: BDRip [1080p]
Видеокодек: MPEG-4 AVC/H.264
Видео: 1920x1080, ~10.8 Мбит/с
Аудио: DTS, 2 ch, 1510 Кбит/с (Русский)

MediaInfo:

Общее
Уникальный идентификатор : 197253751039371448462257268803535443465 (0x9465B0C9A689B1B296D0AB2637FD1609)
Полное имя : Rasskazy.2012.BDRip.1080p.mkv
Формат : Matroska
Версия формата : Version 2
Размер файла : 9,50 Гбайт
Продолжительность : 1 ч. 50 м.
Общий поток : 12,3 Мбит/сек
Название фильма : Рассказы (Rip by kaspr)
Дата кодирования : UTC 2013-03-16 07:41:44
Программа кодирования : mkvmerge v5.7.0 ('The Whirlwind') built on Aug 7 2012 14:11:40
Библиотека кодирования : libebml v1.2.3 + libmatroska v1.3.0
Видео
Идентификатор : 1
Формат : AVC
Формат/Информация : Advanced Video Codec
Профиль формата : [url=mailto:[email protected]][email protected][/url]
Параметр CABAC формата : Да
Параметр ReFrames формата : 4 кадра
Идентификатор кодека : V_MPEG4/ISO/AVC
Продолжительность : 1 ч. 50 м.
Битрейт : 10,8 Мбит/сек
Ширина : 1920 пикселей
Высота : 1080 пикселей
Соотношение сторон : 16:9
Частота кадров : 24,000 кадра/сек
Цветовое пространство : YUV
Субдискретизация насыщенности : 4:2:0
Битовая глубина : 8 бит
Тип развёртки : Прогрессивная
Бит/(Пиксели*Кадры) : 0.217
Размер потока : 8,15 Гбайт (86%)
Заголовок : Рассказы (Rip by kaspr)
Библиотека кодирования : x264 core 129 r2245 bc13772
Настройки программы : cabac=1 / ref=4 / deblock=1:-3:-3 / analyse=0x3:0x133 / me=umh / subme=11 / psy=1 / psy_rd=1.00:0.10 / mixed_ref=1 / me_range=32 / chroma_me=1 / trellis=2 / 8x8dct=1 / cqm=0 / deadzone=21,11 / fast_pskip=0 / chroma_qp_offset=-3 / threads=12 / lookahead_threads=2 / sliced_threads=0 / nr=0 / decimate=0 / interlaced=0 / bluray_compat=0 / constrained_intra=0 / bframes=6 / b_pyramid=2 / b_adapt=2 / b_bias=0 / direct=3 / weightb=1 / open_gop=0 / weightp=2 / keyint=240 / keyint_min=22 / scenecut=40 / intra_refresh=0 / rc_lookahead=40 / rc=2pass / mbtree=1 / bitrate=10823 / ratetol=1.0 / qcomp=0.60 / qpmin=0 / qpmax=69 / qpstep=4 / cplxblur=20.0 / qblur=0.5 / ip_ratio=1.40 / aq=1:1.00
Default : Да
Forced : Да
Аудио
Идентификатор : 2
Формат : DTS
Формат/Информация : Digital Theater Systems
Идентификатор кодека : A_DTS
Продолжительность : 1 ч. 50 м.
Вид битрейта : Постоянный
Битрейт : 1510 Кбит/сек
Каналы : 2 канала
Расположение каналов : Front: L R
Частота : 48,0 КГц
Битовая глубина : 24 бит
Метод сжатия : С потерями
Размер потока : 1,16 Гбайт (12%)
Заголовок : Оригинал
Язык : Russian
Default : Да
Forced : Да
Меню
00:00:00.000 : en:Chapter 01
00:09:34.166 : en:Chapter 02
00:22:31.166 : en:Chapter 03
00:32:15.791 : en:Chapter 04
00:46:23.000 : en:Chapter 05
00:59:25.958 : en:Chapter 06
01:17:34.416 : en:Chapter 07
01:32:22.250 : en:Chapter 08
Скриншоты:
       
       

_________________
Скачал сам, дай скачать другому!!!Не забудь сказать -
Other forum [Profile] [PM]

Dracula

Longevity: 7 years 5 months

Posts: 11216

Торрент-статистика

Post 02-May-2013 10:20 (after 1 month 12 days)

Топик был перенесен из форума Зарубежное кино (DVD) в форум Зарубежное кино (HD Video)


RUGUI
 
Similar theme
Forum Topic Author Torrent Replies Last Post
./templates/default/images/folder_dl.gif Современная проза, классика, поэзия О. Генри - Рассказы [Герасимов Вячеслав, 2013 г., 96 kbps, MP3] Omen
1 | 0

1 | 669

0

2014-06-24 01:41
Дядя Изя Latest
Display posts from previous:    
Reply to topic

The time now is: Today 10:05

All times are GMT + 3 Hours



You cannot post new topics in this forum
You cannot reply to topics in this forum
You cannot edit your posts in this forum
You cannot delete your posts in this forum
You cannot vote in polls in this forum
You cannot attach files in this forum
You cannot download files in this forum