Today is a free download without charge Download

Топтуны / Серии: 1-4 из 24 (Сергей Векслер, Сергей Артимович) [2013, детектив, криминал, DVB]

Reply to topic
 
Author
Message

Omen ®

Longevity: 9 years

Posts: 181086

Торрент-статистика

Post 20-Mar-2013 14:35

[Quote]

Топтуны- Год выпуска: 2013
Производство: телекомпания "STAR Media" по заказу НТВ
Жанр: детектив, криминал
Продолжительность: ~0:45:00 серия
Субтитры: отсутствуют
Режиссёр: Сергей Векслер, Сергей Артимович
В ролях: Денис Никифоров, Анна Носатова, Андрей Негривода, Дарья Шиханова, Ксения Иванова, Владимир Яковлев, Сослан Фидаров, Елена Мольченко (Фатюшина), Сергей Векслер, Евгений Леонов-Гладышев, Александра Афанасьева-Шевчук, Анна Банщикова, Егор Баринов, Луиза-Габриэла Бровина, Александр Рапопорт, Татьяна Косач-Брындина, Алексей Секирин, Бесо Гатаев, Евгений Ермаков, Алена Созинова, Сергей Терещенко, Николай Дроздовский, Сергей Комаров, Юрий Яковлев-Суханов, Мария Горбань, Руслан Ягудин, Александр Шпагин, Дарья Авратинская, Сергей Белов, Роман Синицын, Алексей Артемов, Денис Сердюков, Николай Алипа, Сергей Апрельский, Тарас Кияшко, Константин Новиков, Виктор Фалалеев, Константин Тополага, Василий Мичков, Джамболат Сланов, Максим Костромыкин, Надежда Белова
Описание: «Топтуны» - так называют Оперативно-поисковое управление, одну из самых засекреченных служб МВД. Майор милиции Сергей Ковалев, его помощник Макс Самедов, оперуполномоченные Аглая Максимова и Екатерина Чепикова каждый день имеют дело с особо опасными преступниками. Маскируясь под обычных людей и часто без оружия, они обязаны найти и обезвредить подозреваемых в уголовных преступлениях. Мгновенно перевоплощаясь в любой образ, которого требует ситуация, эта команда выполняет самые различные задачи - от поиска вооруженного дезертира, до ареста главбуха финансовой пирамиды, находящегося в бегах с круглой суммой уже не один год.
Качество: DVB (ABS 1 at 75.0°E)
Формат: MPEG-PS
Видео кодек: MPEG2
Аудио кодек: MP2
Видео: MPEG 2, 720x576 (4:3), 25.000 fps, 5142 Kbps (0.496 bit/pixel)
Аудио: MP2, 48.0 KHz, 2 ch, 192 Kbps, CBR

MediaInfo

ОбщееПолное имя : L:\Раздачи\Топтуны\Топтуны.03 [/*spam*/].mpgФормат : MPEG-PSРазмер файла : 1,73 ГбайтПродолжительность : 45 м.Режим общего битрейта : ПеременныйОбщий поток : 5440 Кбит/секБиблиотека кодирования : (c) 1998-2012 Womble Multimedia, Inc. / MPEG Video Wizard DVD 5.0.1.100 (03/2011) / Sep 7 2012
ВидеоИдентификатор : 224 (0xE0)Формат : MPEG VideoВерсия формата : Version 2Профиль формата : [email protected]Параметр BVOP формата : ДаПараметр матрицы формата : ВыборочнаяПараметр GOP формата : VariableПродолжительность : 45 м.Вид битрейта : ПеременныйБитрейт : 5140 Кбит/секМаксимальный битрейт : 15,0 Мбит/секШирина : 720 пикселейВысота : 576 пикселейСоотношение сторон : 4:3Частота кадров : 25,000 кадров/секСтандарт вещания : PALЦветовое пространство : YUVСубдискретизация насыщенности : 4:2:0Битовая глубина : 8 битТип развёртки : ЧересстрочнаяПорядок развёртки : Верхнее поле первоеМетод сжатия : С потерямиБит/(Пиксели*Кадры) : 0.496TimeCode_FirstFrame : 00:00:00:00TimeCode_Source : Group of pictures headerРазмер потока : 1,64 Гбайт (94%)Библиотека кодирования : (c) 1998-2012 Womble Multimedia, Inc. / MPEG Video Wizard DVD 5.0.1.100 (03/2011) / Sep 7 2012
АудиоИдентификатор : 192 (0xC0)Формат : MPEG AudioВерсия формата : Version 1Профиль формата : Layer 2Продолжительность : 45 м.Вид битрейта : ПостоянныйБитрейт : 192 Кбит/секКаналы : 2 каналаЧастота : 48,0 КГцМетод сжатия : С потерямиРазмер потока : 62,6 Мбайт (4%)
Меню

Раздача ведётся путём добавления новых серий

Раздача ведётся путём добавления новых серий; при каждом добавлении создаётся новый торрент. Чтобы начать докачку новой серии, пользователям необходимо сделать следующее:
(1) остановить скачивание,
(2) удалить старый торрент у себя из клиента (старые серии удалять не надо),
(3) скачать новый торрент и запустить его у себя в клиенте вместо старого, при этом указать клиенту путь в старую папку куда и должно происходить скачивание новых серий.
Ваш клиент при этом должен произвести хеширование (проверку) старой папки (если не производит сам - помогите ему сделать это), и будет докачивать только те серии которых у вас ещё нет. Старые серии при этом не удаляются, а продолжают раздаваться!
Eсли вы уже удалили старые серии, то предотвратить повторную закачку старых серий можно, отжав галочку в соответствующих местах при запуске нового торрента. По возможности, желательно не удалять старые серии как можно дольше чтобы релизёр не столько продолжал раздавать старые серии, а смог сконцентрироваться на новых.
Скриншоты:
       
Other forum [Profile] [PM]
Display posts from previous:    
Reply to topic

The time now is: Today 18:00

All times are GMT + 3 Hours



You cannot post new topics in this forum
You cannot reply to topics in this forum
You cannot edit your posts in this forum
You cannot delete your posts in this forum
You cannot vote in polls in this forum
You cannot attach files in this forum
You cannot download files in this forum