Today is a free download without charge Download

Афера / The Sting (Джордж Рой Хилл / George Roy Hill) [1973, драма, комедия, криминал, BDRip, 720p] Dub + MVO + AVO + Original (Eng) + Subs (Rus, Eng)

Reply to topic
 
Author
Message

Omen ®

Longevity: 8 years 5 months

Posts: 181087

Торрент-статистика

Post 20-Mar-2013 14:35

[Quote]

АфераThe Sting«...all it takes is a little Confidence.»- Страна: США
Жанр: драма, комедия, криминал
Год выпуска: 1973
Продолжительность: 02:11:37-Перевод: Профессиональный (полное дублирование)
Перевод: Профессиональный (многоголосый, закадровый)
Перевод: Авторский одноголосый закадровый (Михалев Алексей)
Оригинальная аудиодорожка: английский
Субтитры: русские, английские
Режиссер: Джордж Рой Хилл / George Roy Hill
В ролях: Пол Ньюман, Роберт Редфорд, Роберт Шоу, Чарльз Дёрнинг, Рей Уолстон, Айлин Бреннан, Харольд Гулд, Джон Хеффернан, Дэна Элкар, Джек Кихоу, Димитра Арлисс, Роберт Эрл Джонс-Описание: В 1930-е годы двое отпетых мошенников пытаются отомстить главарю мафии за смерть их общего друга с помощью одной из самых неожиданных афер в истории кино, которая к тому же заканчивается удивительным и забавным образом.-


MPAA: PG - Рекомендуется присутствие родителей-

Доп. Информация

Сценарий: Дэвид С. Уорд / David S. Ward
Продюсер: Тони Билл / Tony Bill, Джулия Филлипс / Julia Phillips, Майкл Филлипс / Michael Phillips, Роберт Кроуфорд мл. / Robert Crawford Jr., Дэвид Браун / David Brown
Оператор: Роберт Сёртис / Robert Surtees
Бюджет: $5 500 000
Сборы в США: $156 000 000
Мировая премьера: 25 декабря 1973
Релиз на DVD: 24 марта 2011, «ВС трейд»
Релиз на Blu-ray: 14 июня 2012, «Двадцатый Век Фокс СНГ»
-Качество: BDRip 720p
Контейнер: MKV
Видео: AVC, 1280x696 (16:9), 6210 kbps, 23,976 fps, 0,291 bpp
Аудио №1: английский / DTS / 5.1 / 48 kHz / 1510 kbps / 24 bit
Аудио №2: русский / AC3 / 2.0 / 48 kHz / 192 kbps / 16 bit ||
Аудио №3: русский / AC3 / 2.0 / 48 kHz / 192 kbps / 16 bit ||
Аудио №4: русский / AC3 / 2.0 / 48 kHz / 192 kbps / 16 bit ||
Формат субтитров: softsub [SRT]-

Знаете ли Вы, что...

  • Производственный период: 22 января - апрель 1973.
  • Сценарист фильма Дэвид С. Уорд придумал историю «Аферы», когда работал над другим сценарием - к фильму Алана Майерсона «Блюз Стильярда» (1973). В последнем фильме была сцена карточной игры, и описывая ее, Уорд внимательно изучил тему карт и карточных шулеров. Так родилась идея, которую сразу же поддержал продюсер (и будущий режиссер) Тони Билл. Он также привлек к фильму двух других продюсеров - супругов Джулию и Майкла Филлипсов.
  • Главной литературной основой, вдохновившей Дэвида С. Уорда, была книга Дэвида У. Морера «Большой жулик», выпущенная в 1940 году. В этой книге были описаны легендарные шулера первой четверти ХХ века, чьи имена возродились в таких персонажах фильма, как Генри Гондорфф, ДжейДжей Синглтон, Малыш Твист и Эдди Найлс.
  • Уорд писал сценарий сразу с расчетом на Роберта Редфорда. Но актеру не очень понравилась роль Джонни Хукера, и он отказался. И даже когда он изменил решение, все еще не был уверен, что фильм получится.
  • Если бы Редфорд не передумал, Хукера сыграл бы Джек Николсон.
  • Уорд вкратце пересказал своим продюсерам, о чем будет фильм, но отказался раскрывать финал, пока не допишет сценарий до конца.
  • Сценарий Уорда случайно попался на глаза Джорджу Рою Хиллу. Хилл моментально ухватился за него и сразу же пригласил в проект Пола Ньюмана.
  • Во время съемок Хилл страстно мечтал выйти за пределы павильонов. Его отговаривал опытный художник Генри Бамстед, уверявший режиссера, что будет крайне сложно получить разрешение на то, чтобы перекрыть движение на улице. В результате, на натурные съемки в Лос-Анджелесе и Чикаго ушло всего несколько дней.
  • В течение двух лет мэр Чикаго Ричард Дж. Дэйли отказывался пускать в город киношников, если они собирались рассказать о Чикаго что-нибудь негативное. Тем не менее, он сделал исключения для создателей «Аферы», пустив их на три дня.
  • Как вспоминала в своей биографии костюмер фильма Эдит Хед, голубоглазые Редфорд и Ньюман оба требовали одеть их героев в голубые рубашки - чтобы подчеркнуть цвет глаз. Удалось прийти к компромиссу - актеры появляются в фильме «в голубом» по очереди.
  • Дойл Лоннерган не был по сценарию хромым. Но Роберт Шоу перед съемками повредил лодыжку; его герою пришлось придумать хромоту.
  • Роберт Шоу получил роль Лоннергана после того, как от нее отказались Ричард Бун, Оливер Рид и Стивен Бойд. Однако Рид сыграл Лоннергана во второй части фильма.
  • Персонаж по имени Джонни Хукер получил свое имя в честь легенды блюза Джона Ли Хукера.
  • Музыкальное настроение в фильме создает рэгтайм; были использованы композиции Скотта Джоплина 1900-1910-х годов. Между тем, в 1930-е, когда происходит действие «Аферы», рэгтайм практически вышел из моды; тем не менее, благодаря ленте интерес к этому музыкальному жанру был возрожден.
  • У Пола Ньюмана, сыгравшего карточного шулера Генри Гондорффа, был дублер - на всех крупных планах руки Гондорффа, тасующего карты, принадлежат техническому консультанту фильма Джону Скэрну.
  • Джонни Хукер сталкивается с Лоннерганом в той же закусочной, где спустя 12 лет Марти МакФлай встретится со своим отцом - в фантастической комедии Роберта Земекиса «Назад в будущее» (1985).
  • Впервые посмотреть фильм целиком Роберт Редфорд удосужился лишь в июне 2004-го.

Media Info

General
Unique ID : 184096487589749141659156528404514546001 (0x8A7FB19D91A58D6A99C8CF7645E52151)
Complete name : D:\The.Sting.1973.BDRip_720p.mkv
Format : Matroska
Format version : Version 2
File size : 7.78 GiB
Duration : 2h 11mn
Overall bit rate : 8 465 Kbps
Encoded date : UTC 2013-03-20 05:23:25
Writing application : mkvmerge v5.8.0 ('No Sleep / Pillow') built on Sep 2 2012 15:37:04
Writing library : libebml v1.2.3 + libmatroska v1.3.0
Video
ID : 1
Format : AVC
Format/Info : Advanced Video Codec
Format profile : [email protected]
Format settings, CABAC : Yes
Format settings, ReFrames : 8 frames
Codec ID : V_MPEG4/ISO/AVC
Duration : 2h 11mn
Bit rate : 6 210 Kbps
Width : 1 280 pixels
Height : 696 pixels
Display aspect ratio : 16:9
Frame rate : 23.976 fps
Color space : YUV
Chroma subsampling : 4:2:0
Bit depth : 8 bits
Scan type : Progressive
Bits/(Pixel*Frame) : 0.291
Stream size : 5.71 GiB (73%)
Writing library : x264 core 130 r2273 b3065e6
Encoding settings : cabac=1 / ref=8 / deblock=1:-2:-2 / analyse=0x3:0x113 / me=umh / subme=10 / psy=1 / psy_rd=1.00:0.15 / mixed_ref=1 / me_range=48 / chroma_me=1 / trellis=2 / 8x8dct=1 / cqm=0 / deadzone=21,11 / fast_pskip=1 / chroma_qp_offset=-3 / threads=6 / lookahead_threads=1 / sliced_threads=0 / nr=0 / decimate=1 / interlaced=0 / bluray_compat=0 / constrained_intra=0 / bframes=11 / b_pyramid=2 / b_adapt=2 / b_bias=0 / direct=1 / weightb=1 / open_gop=0 / weightp=2 / keyint=250 / keyint_min=23 / scenecut=40 / intra_refresh=0 / rc_lookahead=40 / rc=crf / mbtree=0 / crf=18.0 / qcomp=0.60 / qpmin=10 / qpmax=51 / qpstep=4 / vbv_maxrate=50000 / vbv_bufsize=62500 / crf_max=0.0 / nal_hrd=none / ip_ratio=1.40 / pb_ratio=1.30 / aq=2:1.00
Language : English
Default : Yes
Forced : No
Audio #1
ID : 2
Format : DTS
Format/Info : Digital Theater Systems
Codec ID : A_DTS
Duration : 2h 11mn
Bit rate mode : Constant
Bit rate : 1 510 Kbps
Channel(s) : 6 channels
Channel positions : Front: L C R, Side: L R, LFE
Sampling rate : 48.0 KHz
Bit depth : 24 bits
Compression mode : Lossy
Stream size : 1.39 GiB (18%)
Title : English
Language : English
Default : No
Forced : No
Audio #2
ID : 3
Format : AC-3
Format/Info : Audio Coding 3
Mode extension : CM (complete main)
Codec ID : A_AC3
Duration : 2h 11mn
Bit rate mode : Constant
Bit rate : 192 Kbps
Channel(s) : 2 channels
Channel positions : Front: L R
Sampling rate : 48.0 KHz
Bit depth : 16 bits
Compression mode : Lossy
Stream size : 181 MiB (2%)
Title : Дублированный
Language : Russian
Default : Yes
Forced : No
Audio #3
ID : 4
Format : AC-3
Format/Info : Audio Coding 3
Mode extension : CM (complete main)
Codec ID : A_AC3
Duration : 2h 11mn
Bit rate mode : Constant
Bit rate : 192 Kbps
Channel(s) : 2 channels
Channel positions : Front: L R
Sampling rate : 48.0 KHz
Bit depth : 16 bits
Compression mode : Lossy
Stream size : 181 MiB (2%)
Title : Многоголосый
Language : Russian
Default : No
Forced : No
Audio #4
ID : 5
Format : AC-3
Format/Info : Audio Coding 3
Mode extension : CM (complete main)
Codec ID : A_AC3
Duration : 2h 11mn
Bit rate mode : Constant
Bit rate : 192 Kbps
Channel(s) : 2 channels
Channel positions : Front: L R
Sampling rate : 48.0 KHz
Bit depth : 16 bits
Compression mode : Lossy
Stream size : 181 MiB (2%)
Title : Михалёв
Language : Russian
Default : No
Forced : No
Text #1
ID : 6
Format : UTF-8
Codec ID : S_TEXT/UTF8
Codec ID/Info : UTF-8 Plain Text
Title : Субтиры русские
Language : Russian
Default : No
Forced : No
Text #2
ID : 7
Format : UTF-8
Codec ID : S_TEXT/UTF8
Codec ID/Info : UTF-8 Plain Text
Title : Субтитры английские
Language : English
Default : No
Forced : No

х264

x264 [info]: frame I:1274 Avg QP:17.70 size:140878 PSNR Mean Y:46.06 U:48.66 V:48.16 Avg:46.68 Global:46.27
x264 [info]: frame P:37337 Avg QP:18.88 size: 64127 PSNR Mean Y:44.64 U:47.48 V:46.90 Avg:45.30 Global:44.77
x264 [info]: frame B:147368 Avg QP:20.85 size: 25497 PSNR Mean Y:43.30 U:46.81 V:46.11 Avg:44.04 Global:43.53
x264 [info]: consecutive B-frames: 1.1% 0.7% 5.0% 18.0% 21.8% 51.4% 1.4% 0.2% 0.1% 0.1% 0.1% 0.2%
x264 [info]: mb I I16..4: 9.3% 77.7% 13.1%
x264 [info]: mb P I16..4: 0.9% 19.8% 1.3% P16..4: 29.7% 28.1% 16.5% 0.0% 0.0% skip: 3.7%
x264 [info]: mb B I16..4: 0.1% 2.1% 0.1% B16..8: 36.2% 11.1% 3.7% direct:14.8% skip:31.9% L0:42.2% L1:39.4% BI:18.3%
x264 [info]: 8x8 transform intra:89.8% inter:59.0%
x264 [info]: coded y,uvDC,uvAC intra: 95.1% 94.4% 85.6% inter: 44.5% 32.5% 7.7%
x264 [info]: i16 v,h,dc,p: 41% 7% 24% 28%
x264 [info]: i8 v,h,dc,ddl,ddr,vr,hd,vl,hu: 15% 9% 12% 8% 11% 11% 11% 11% 12%
x264 [info]: i4 v,h,dc,ddl,ddr,vr,hd,vl,hu: 15% 7% 4% 9% 15% 15% 13% 11% 11%
x264 [info]: i8c dc,h,v,p: 52% 16% 18% 14%
x264 [info]: Weighted P-Frames: Y:5.2% UV:1.6%
x264 [info]: ref P L0: 35.8% 11.0% 21.5% 7.9% 8.5% 5.5% 6.1% 3.4% 0.3% 0.0%
x264 [info]: ref B L0: 79.6% 9.7% 4.1% 2.6% 1.8% 1.4% 0.8%
x264 [info]: ref B L1: 96.7% 3.3%
x264 [info]: SSIM Mean Y:0.9750179 (16.024db)
x264 [info]: PSNR Mean Y:43.589 U:46.958 V:46.286 Avg:44.313 Global:43.765 kb/s:6529.61

Скриншоты

Other forum [Profile] [PM]
Display posts from previous:    
Reply to topic

The time now is: Today 18:49

All times are GMT + 3 Hours



You cannot post new topics in this forum
You cannot reply to topics in this forum
You cannot edit your posts in this forum
You cannot delete your posts in this forum
You cannot vote in polls in this forum
You cannot attach files in this forum
You cannot download files in this forum