Сегодня идет свободное скачивание без начисления Download

Joe Harriott & John Mayer Double Quintet - Indo-Jazz Suite/Indo Jazz Fusions (2LP\'s on 1 CD) (1967,1968) [MP3|320 кб/с]<Indo-Jazz>

Ответить на тему
 
Автор
Сообщение

UndegraundMen ®

Стаж: 5 лет 9 месяцев

Сообщений: 25860

Торрент-статистика

Пост 20-Мар-2013 14:10

[Цитировать]

Joe Harriott & John Mayer Double Quintet - Indo-Jazz Suite / Indo Jazz Fusions (2LP's on 1 CD) 1967-1968 MP3 tracks- Год: 1967,1968
Жанр: Indo-Jazz
Продолжительность: 01:15:27
Кодек: MP3
Битрейт: 320 кб/с
Тип битрейта: CBR
Трек лист:
Indo-Jazz Suite - 1968
1.Overture (8:32)
2.Contrasts (10:55)
3.Raga Megha (8:46)
4.Raga Gaud-Saranga (8:31)
Indo Jazz Fusions - 1967
5.Partita (17:23)
6.Multani (11:26)
7.Gana (2:08)
8.Acka Raga (2:44)
9.Subject (6:22)

mediainfo

Полное имя : D:\MEDIA\Audio\Indo-Jazz\01.overture.mp3
Формат : MPEG Audio
Размер файла : 19,6 Мбайт
Продолжительность : 8 м. 32 с.
Режим общего битрейта : Постоянный
Общий поток : 320 Кбит/сек
Альбом : Indo-Jazz Suite / Indo Jazz Fusions
Трек : Overture
Трек/Положение : 1
Исполнитель : Joe Harriott & John Mayer Double Quintet
Жанр : www.mp3-ogg.ru
Дата записи : 1968
Правообладатель : Make Love Not War
Примечание : Òîëüêî äëÿ îçíàêîìëåíèÿ
Аудио
Формат : MPEG Audio
Версия формата : Version 1
Профиль формата : Layer 3
Режим : Joint stereo
Продолжительность : 8 м. 32 с.
Вид битрейта : Постоянный
Битрейт : 320 Кбит/сек
Каналы : 2 канала
Частота : 44,1 КГц
Метод сжатия : С потерями
Размер потока : 19,6 Мбайт (100%)
Общее
Полное имя : D:\MEDIA\Audio\Indo-Jazz\02.contrasts.mp3
Формат : MPEG Audio
Размер файла : 25,0 Мбайт
Продолжительность : 10 м.
Режим общего битрейта : Постоянный
Общий поток : 320 Кбит/сек
Альбом : Indo-Jazz Suite / Indo Jazz Fu
Альбом/Исполнитель : The Joe Harriott Double Quintet
Трек : Contrasts
Трек/Положение : 2
Исполнитель : Joe Harriott & John Mayer Doub
Композитор : John Mayer
Издатель : Rhino
Жанр : Jazz
Дата записи : 1968
Примечание : Òîëüêî äëÿ îçíàêîìëåíèÿ
Аудио
Формат : MPEG Audio
Версия формата : Version 1
Профиль формата : Layer 3
Режим : Joint stereo
Продолжительность : 10 м.
Вид битрейта : Постоянный
Битрейт : 320 Кбит/сек
Каналы : 2 канала
Частота : 44,1 КГц
Метод сжатия : С потерями
Размер потока : 25,0 Мбайт (100%)
Общее
Полное имя : D:\MEDIA\Audio\Indo-Jazz\03.raga_megha.mp3
Формат : MPEG Audio
Размер файла : 20,1 Мбайт
Продолжительность : 8 м. 46 с.
Режим общего битрейта : Постоянный
Общий поток : 320 Кбит/сек
Альбом : Indo-Jazz Suite / Indo Jazz Fu
Альбом/Исполнитель : The Joe Harriott Double Quintet
Трек : Raga Megha
Трек/Положение : 3
Исполнитель : Joe Harriott & John Mayer Doub
Композитор : John Mayer
Издатель : Rhino
Жанр : Jazz
Дата записи : 1968
Примечание : Òîëüêî äëÿ îçíàêîìëåíèÿ
Аудио
Формат : MPEG Audio
Версия формата : Version 1
Профиль формата : Layer 3
Режим : Joint stereo
Продолжительность : 8 м. 47 с.
Вид битрейта : Постоянный
Битрейт : 320 Кбит/сек
Каналы : 2 канала
Частота : 44,1 КГц
Метод сжатия : С потерями
Размер потока : 20,1 Мбайт (100%)
Общее
Полное имя : D:\MEDIA\Audio\Indo-Jazz\04.raga_gaud-saranga.mp3
Формат : MPEG Audio
Размер файла : 19,5 Мбайт
Продолжительность : 8 м. 31 с.
Режим общего битрейта : Постоянный
Общий поток : 320 Кбит/сек
Альбом : Indo-Jazz Suite / Indo Jazz Fu
Альбом/Исполнитель : The Joe Harriott Double Quintet
Трек : Raga Gaud-Saranga
Трек/Положение : 4
Исполнитель : Joe Harriott & John Mayer Doub
Композитор : John Mayer
Издатель : Rhino
Жанр : Jazz
Дата записи : 1968
Примечание : Òîëüêî äëÿ îçíàêîìëåíèÿ
Аудио
Формат : MPEG Audio
Версия формата : Version 1
Профиль формата : Layer 3
Режим : Joint stereo
Продолжительность : 8 м. 31 с.
Вид битрейта : Постоянный
Битрейт : 320 Кбит/сек
Каналы : 2 канала
Частота : 44,1 КГц
Метод сжатия : С потерями
Размер потока : 19,5 Мбайт (100%)
Общее
Полное имя : D:\MEDIA\Audio\Indo-Jazz\05.partita.mp3
Формат : MPEG Audio
Размер файла : 39,8 Мбайт
Продолжительность : 17 м.
Режим общего битрейта : Постоянный
Общий поток : 320 Кбит/сек
Альбом : Indo-Jazz Fusions
Альбом/Исполнитель : Joe Harriott
Трек : Partita
Трек/Положение : 1
Исполнитель : Joe Harriott & John Mayer Doub
Издатель : Universal Music
Жанр : Jazz
Дата записи : 1967
Примечание : Òîëüêî äëÿ îçíàêîìëåíèÿ
Аудио
Формат : MPEG Audio
Версия формата : Version 1
Профиль формата : Layer 3
Режим : Joint stereo
Продолжительность : 17 м.
Вид битрейта : Постоянный
Битрейт : 320 Кбит/сек
Каналы : 2 канала
Частота : 44,1 КГц
Метод сжатия : С потерями
Размер потока : 39,8 Мбайт (100%)
Общее
Полное имя : D:\MEDIA\Audio\Indo-Jazz\06.multani.mp3
Формат : MPEG Audio
Размер файла : 26,2 Мбайт
Продолжительность : 11 м.
Режим общего битрейта : Постоянный
Общий поток : 320 Кбит/сек
Альбом : Indo-Jazz Fusions
Альбом/Исполнитель : Joe Harriott
Трек : Multani
Трек/Положение : 2
Исполнитель : Joe Harriott & John Mayer Doub
Издатель : Universal Music
Жанр : Jazz
Дата записи : 1967
Примечание : Òîëüêî äëÿ îçíàêîìëåíèÿ
Аудио
Формат : MPEG Audio
Версия формата : Version 1
Профиль формата : Layer 3
Режим : Joint stereo
Продолжительность : 11 м.
Вид битрейта : Постоянный
Битрейт : 320 Кбит/сек
Каналы : 2 канала
Частота : 44,1 КГц
Метод сжатия : С потерями
Размер потока : 26,2 Мбайт (100%)
Общее
Полное имя : D:\MEDIA\Audio\Indo-Jazz\07.gana.mp3
Формат : MPEG Audio
Размер файла : 4,93 Мбайт
Продолжительность : 2 м. 8 с.
Режим общего битрейта : Постоянный
Общий поток : 320 Кбит/сек
Альбом : Indo-Jazz Fusions
Альбом/Исполнитель : Joe Harriott
Трек : Gana
Трек/Положение : 3
Исполнитель : Joe Harriott & John Mayer Doub
Издатель : Universal Music
Жанр : Jazz
Дата записи : 1967
Примечание : Òîëüêî äëÿ îçíàêîìëåíèÿ
Аудио
Формат : MPEG Audio
Версия формата : Version 1
Профиль формата : Layer 3
Режим : Joint stereo
Продолжительность : 2 м. 9 с.
Вид битрейта : Постоянный
Битрейт : 320 Кбит/сек
Каналы : 2 канала
Частота : 44,1 КГц
Метод сжатия : С потерями
Размер потока : 4,92 Мбайт (100%)
Общее
Полное имя : D:\MEDIA\Audio\Indo-Jazz\08.acka_raga.mp3
Формат : MPEG Audio
Размер файла : 6,27 Мбайт
Продолжительность : 2 м. 44 с.
Режим общего битрейта : Постоянный
Общий поток : 320 Кбит/сек
Альбом : Indo-Jazz Fusions
Альбом/Исполнитель : Joe Harriott
Трек : Acka Raga
Трек/Положение : 4
Исполнитель : Joe Harriott & John Mayer Doub
Издатель : Universal Music
Жанр : Jazz
Дата записи : 1967
Примечание : Òîëüêî äëÿ îçíàêîìëåíèÿ
Аудио
Формат : MPEG Audio
Версия формата : Version 1
Профиль формата : Layer 3
Режим : Joint stereo
Продолжительность : 2 м. 44 с.
Вид битрейта : Постоянный
Битрейт : 320 Кбит/сек
Каналы : 2 канала
Частота : 44,1 КГц
Метод сжатия : С потерями
Размер потока : 6,26 Мбайт (100%)
Общее
Полное имя : D:\MEDIA\Audio\Indo-Jazz\09.subject.mp3
Формат : MPEG Audio
Размер файла : 14,6 Мбайт
Продолжительность : 6 м. 22 с.
Режим общего битрейта : Постоянный
Общий поток : 320 Кбит/сек
Альбом : Indo-Jazz Fusions
Альбом/Исполнитель : Joe Harriott
Трек : Subject
Трек/Положение : 5
Исполнитель : Joe Harriott & John Mayer Doub
Издатель : Universal Music
Жанр : Jazz
Дата записи : 1967
Примечание : Òîëüêî äëÿ îçíàêîìëåíèÿ
Аудио
Формат : MPEG Audio
Версия формата : Version 1
Профиль формата : Layer 3
Режим : Joint stereo
Продолжительность : 6 м. 22 с.
Вид битрейта : Постоянный
Битрейт : 320 Кбит/сек
Каналы : 2 канала
Частота : 44,1 КГц
Метод сжатия : С потерями
Размер потока : 14,6 Мбайт (100%)

Дополнительная информация&#58;

Джазовая импровизация на музыку из различных традиций.
Исполнители:
Joe Harriott (Alto Saxophone)
Eddie Blair (Trumpet, Flugelhorn)
Pat Smythie (Piano)
John Mayer (Violin, Harpsichord)
Diwan Motihar (Sitar)
Rick Laird (Bass)
Alan Ganley (Drums)
Chandrahas Paigankar (Tambura)
Keshav Sathe (Tabla)
Время раздачи: С 08:00 до 24:00
Вне форума [Профиль] [ЛС]
Показать сообщения:    
Ответить на тему

Текущее время: Сегодня 01:37

Часовой пояс: GMT + 3



Вы не можете начинать темы
Вы не можете отвечать на сообщения
Вы не можете редактировать свои сообщения
Вы не можете удалять свои сообщения
Вы не можете голосовать в опросах
Вы не можете прикреплять файлы к сообщениям
Вы не можете скачивать файлы