Today is a free download without charge Download

Wycliffe Gordon - The Intimate Ellington / Ballads and Blues (2013) [MP3|192 кб/с]<Jazz>

Reply to topic
 
Author
Message

UndegraundMen ®

Longevity: 8 years 11 months

Posts: 25145

Торрент-статистика

Post 20-Mar-2013 11:06

[Quote]

Wycliffe Gordon - The Intimate Ellington / Ballads and Blues (2013)- Год: 2013
Жанр: Jazz
Продолжительность: 01:11:58
Кодек: MP3
Битрейт: 192 кб/с
Тип битрейта: CBR
Трек лист:
1. Pie Eye's Blues (6:35)
2. Jeep's Blues (6:07)
3. I Got It Bad And That Ain't Good (7:00)
4. Creole Love Call (8:00)
5. Stevie (7:29)
6. The Intimacy Of The Blues (6:57)
7. Lotus Blossom (5:13)
8. Something Sexual (7:59)
9. Sophisticated Lady (8:21)
10. Caravan (8:17)

MI&#58;

Код:
Общее
Полное имя                               : C:\Users\Wycliffe Gordon - The Intimate Ellington. Ballads and Blues (2013)\01. Pie Eye's Blues.mp3
Формат                                   : MPEG Audio
Размер файла                             : 9,06 Мбайт
Продолжительность                        : 6 м. 35 с.
Режим общего битрейта                    : Постоянный
Общий поток                              : 192 Кбит/сек
Альбом                                   : The Intimate Ellington: Ballads and Blues
Трек                                     : Pie Eye's Blues
Трек/Положение                           : 01
Исполнитель                              : Wycliffe Gordon
Жанр                                     : Jazz
Дата записи                              : 2013
Библиотека кодирования                   : LAME3.98
Аудио
Формат                                   : MPEG Audio
Версия формата                           : Version 1
Профиль формата                          : Layer 3
Режим                                    : Joint stereo
Продолжительность                        : 6 м. 36 с.
Вид битрейта                             : Постоянный
Битрейт                                  : 192 Кбит/сек
Каналы                                   : 2 канала
Частота                                  : 44,1 КГц
Метод сжатия                             : С потерями
Размер потока                            : 9,06 Мбайт (100%)
Библиотека кодирования                   : LAME3.98
Настройки программы                      : -m j -V 4 -q 3 -lowpass 18.6 -b 192
Общее
Полное имя                               : C:\Users\Wycliffe Gordon - The Intimate Ellington. Ballads and Blues (2013)\02. Jeep's Blues.mp3
Формат                                   : MPEG Audio
Размер файла                             : 8,41 Мбайт
Продолжительность                        : 6 м. 7 с.
Режим общего битрейта                    : Постоянный
Общий поток                              : 192 Кбит/сек
Альбом                                   : The Intimate Ellington: Ballads and Blues
Трек                                     : Jeep's Blues
Трек/Положение                           : 02
Исполнитель                              : Wycliffe Gordon
Жанр                                     : Jazz
Дата записи                              : 2013
Библиотека кодирования                   : LAME3.98
Аудио
Формат                                   : MPEG Audio
Версия формата                           : Version 1
Профиль формата                          : Layer 3
Режим                                    : Joint stereo
Продолжительность                        : 6 м. 7 с.
Вид битрейта                             : Постоянный
Битрейт                                  : 192 Кбит/сек
Каналы                                   : 2 канала
Частота                                  : 44,1 КГц
Метод сжатия                             : С потерями
Размер потока                            : 8,40 Мбайт (100%)
Библиотека кодирования                   : LAME3.98
Настройки программы                      : -m j -V 4 -q 3 -lowpass 18.6 -b 192
Общее
Полное имя                               : C:\Users\Wycliffe Gordon - The Intimate Ellington. Ballads and Blues (2013)\03. I Got It Bad And That Ain't Good.mp3
Формат                                   : MPEG Audio
Размер файла                             : 9,64 Мбайт
Продолжительность                        : 7 м. 0 с.
Режим общего битрейта                    : Постоянный
Общий поток                              : 192 Кбит/сек
Альбом                                   : The Intimate Ellington: Ballads and Blues
Трек                                     : I Got It Bad And That Ain't Good
Трек/Положение                           : 03
Исполнитель                              : Wycliffe Gordon
Жанр                                     : Jazz
Дата записи                              : 2013
Библиотека кодирования                   : LAME3.98
Аудио
Формат                                   : MPEG Audio
Версия формата                           : Version 1
Профиль формата                          : Layer 3
Режим                                    : Joint stereo
Расширение режима                        : MS Stereo
Продолжительность                        : 7 м. 1 с.
Вид битрейта                             : Постоянный
Битрейт                                  : 192 Кбит/сек
Каналы                                   : 2 канала
Частота                                  : 44,1 КГц
Метод сжатия                             : С потерями
Размер потока                            : 9,63 Мбайт (100%)
Библиотека кодирования                   : LAME3.98
Настройки программы                      : -m j -V 4 -q 3 -lowpass 18.6 -b 192
Общее
Полное имя                               : C:\Users\Wycliffe Gordon - The Intimate Ellington. Ballads and Blues (2013)\04. Creole Love Call.mp3
Формат                                   : MPEG Audio
Размер файла                             : 11,0 Мбайт
Продолжительность                        : 8 м. 0 с.
Режим общего битрейта                    : Постоянный
Общий поток                              : 192 Кбит/сек
Альбом                                   : The Intimate Ellington: Ballads and Blues
Трек                                     : Creole Love Call
Трек/Положение                           : 04
Исполнитель                              : Wycliffe Gordon
Жанр                                     : Jazz
Дата записи                              : 2013
Библиотека кодирования                   : LAME3.98
Аудио
Формат                                   : MPEG Audio
Версия формата                           : Version 1
Профиль формата                          : Layer 3
Режим                                    : Joint stereo
Расширение режима                        : MS Stereo
Продолжительность                        : 8 м. 0 с.
Вид битрейта                             : Постоянный
Битрейт                                  : 192 Кбит/сек
Каналы                                   : 2 канала
Частота                                  : 44,1 КГц
Метод сжатия                             : С потерями
Размер потока                            : 11,0 Мбайт (100%)
Библиотека кодирования                   : LAME3.98
Настройки программы                      : -m j -V 4 -q 3 -lowpass 18.6 -b 192
Общее
Полное имя                               : C:\Users\Wycliffe Gordon - The Intimate Ellington. Ballads and Blues (2013)\05. Stevie.mp3
Формат                                   : MPEG Audio
Размер файла                             : 10,3 Мбайт
Продолжительность                        : 7 м. 29 с.
Режим общего битрейта                    : Постоянный
Общий поток                              : 192 Кбит/сек
Альбом                                   : The Intimate Ellington: Ballads and Blues
Трек                                     : Stevie
Трек/Положение                           : 05
Исполнитель                              : Wycliffe Gordon
Жанр                                     : Jazz
Дата записи                              : 2013
Библиотека кодирования                   : LAME3.98
Аудио
Формат                                   : MPEG Audio
Версия формата                           : Version 1
Профиль формата                          : Layer 3
Режим                                    : Joint stereo
Расширение режима                        : MS Stereo
Продолжительность                        : 7 м. 30 с.
Вид битрейта                             : Постоянный
Битрейт                                  : 192 Кбит/сек
Каналы                                   : 2 канала
Частота                                  : 44,1 КГц
Метод сжатия                             : С потерями
Размер потока                            : 10,3 Мбайт (100%)
Библиотека кодирования                   : LAME3.98
Настройки программы                      : -m j -V 4 -q 3 -lowpass 18.6 -b 192
Общее
Полное имя                               : C:\Users\Wycliffe Gordon - The Intimate Ellington. Ballads and Blues (2013)\06. The Intimacy Of The Blues.mp3
Формат                                   : MPEG Audio
Размер файла                             : 9,56 Мбайт
Продолжительность                        : 6 м. 57 с.
Режим общего битрейта                    : Постоянный
Общий поток                              : 192 Кбит/сек
Альбом                                   : The Intimate Ellington: Ballads and Blues
Трек                                     : The Intimacy Of The Blues
Трек/Положение                           : 06
Исполнитель                              : Wycliffe Gordon
Жанр                                     : Jazz
Дата записи                              : 2013
Библиотека кодирования                   : LAME3.98
Аудио
Формат                                   : MPEG Audio
Версия формата                           : Version 1
Профиль формата                          : Layer 3
Режим                                    : Joint stereo
Расширение режима                        : MS Stereo
Продолжительность                        : 6 м. 58 с.
Вид битрейта                             : Постоянный
Битрейт                                  : 192 Кбит/сек
Каналы                                   : 2 канала
Частота                                  : 44,1 КГц
Метод сжатия                             : С потерями
Размер потока                            : 9,55 Мбайт (100%)
Библиотека кодирования                   : LAME3.98
Настройки программы                      : -m j -V 4 -q 3 -lowpass 18.6 -b 192
Общее
Полное имя                               : C:\Users\Wycliffe Gordon - The Intimate Ellington. Ballads and Blues (2013)\07. Lotus Blossom.mp3
Формат                                   : MPEG Audio
Размер файла                             : 7,18 Мбайт
Продолжительность                        : 5 м. 13 с.
Режим общего битрейта                    : Постоянный
Общий поток                              : 192 Кбит/сек
Альбом                                   : The Intimate Ellington: Ballads and Blues
Трек                                     : Lotus Blossom
Трек/Положение                           : 07
Исполнитель                              : Wycliffe Gordon
Жанр                                     : Jazz
Дата записи                              : 2013
Библиотека кодирования                   : LAME3.98
Аудио
Формат                                   : MPEG Audio
Версия формата                           : Version 1
Профиль формата                          : Layer 3
Режим                                    : Joint stereo
Расширение режима                        : MS Stereo
Продолжительность                        : 5 м. 14 с.
Вид битрейта                             : Постоянный
Битрейт                                  : 192 Кбит/сек
Каналы                                   : 2 канала
Частота                                  : 44,1 КГц
Метод сжатия                             : С потерями
Размер потока                            : 7,18 Мбайт (100%)
Библиотека кодирования                   : LAME3.98
Настройки программы                      : -m j -V 4 -q 3 -lowpass 18.6 -b 192
Общее
Полное имя                               : C:\Users\Wycliffe Gordon - The Intimate Ellington. Ballads and Blues (2013)\08. Something Sexual.mp3
Формат                                   : MPEG Audio
Размер файла                             : 11,0 Мбайт
Продолжительность                        : 7 м. 59 с.
Режим общего битрейта                    : Постоянный
Общий поток                              : 192 Кбит/сек
Альбом                                   : The Intimate Ellington: Ballads and Blues
Трек                                     : Something Sexual
Трек/Положение                           : 08
Исполнитель                              : Wycliffe Gordon
Жанр                                     : Jazz
Дата записи                              : 2013
Библиотека кодирования                   : LAME3.98
Аудио
Формат                                   : MPEG Audio
Версия формата                           : Version 1
Профиль формата                          : Layer 3
Режим                                    : Joint stereo
Расширение режима                        : MS Stereo
Продолжительность                        : 8 м. 0 с.
Вид битрейта                             : Постоянный
Битрейт                                  : 192 Кбит/сек
Каналы                                   : 2 канала
Частота                                  : 44,1 КГц
Метод сжатия                             : С потерями
Размер потока                            : 11,0 Мбайт (100%)
Библиотека кодирования                   : LAME3.98
Настройки программы                      : -m j -V 4 -q 3 -lowpass 18.6 -b 192
Общее
Полное имя                               : C:\Users\Wycliffe Gordon - The Intimate Ellington. Ballads and Blues (2013)\09. Sophisticated Lady.mp3
Формат                                   : MPEG Audio
Размер файла                             : 11,5 Мбайт
Продолжительность                        : 8 м. 21 с.
Режим общего битрейта                    : Постоянный
Общий поток                              : 192 Кбит/сек
Альбом                                   : The Intimate Ellington: Ballads and Blues
Трек                                     : Sophisticated Lady
Трек/Положение                           : 09
Исполнитель                              : Wycliffe Gordon
Жанр                                     : Jazz
Дата записи                              : 2013
Библиотека кодирования                   : LAME3.98
Аудио
Формат                                   : MPEG Audio
Версия формата                           : Version 1
Профиль формата                          : Layer 3
Режим                                    : Joint stereo
Расширение режима                        : MS Stereo
Продолжительность                        : 8 м. 22 с.
Вид битрейта                             : Постоянный
Битрейт                                  : 192 Кбит/сек
Каналы                                   : 2 канала
Частота                                  : 44,1 КГц
Метод сжатия                             : С потерями
Размер потока                            : 11,5 Мбайт (100%)
Библиотека кодирования                   : LAME3.98
Настройки программы                      : -m j -V 4 -q 3 -lowpass 18.6 -b 192
Общее
Полное имя                               : C:\Users\Wycliffe Gordon - The Intimate Ellington. Ballads and Blues (2013)\10. Caravan.mp3
Формат                                   : MPEG Audio
Размер файла                             : 11,4 Мбайт
Продолжительность                        : 8 м. 17 с.
Режим общего битрейта                    : Постоянный
Общий поток                              : 192 Кбит/сек
Альбом                                   : The Intimate Ellington. Ballads and Blues
Трек                                     : Caravan
Трек/Положение                           : 10
Исполнитель                              : Wycliffe Gordon
Жанр                                     : Jazz
Дата записи                              : 2013
Библиотека кодирования                   : LAME3.98
Аудио
Формат                                   : MPEG Audio
Версия формата                           : Version 1
Профиль формата                          : Layer 3
Режим                                    : Joint stereo
Расширение режима                        : MS Stereo
Продолжительность                        : 8 м. 17 с.
Вид битрейта                             : Постоянный
Битрейт                                  : 192 Кбит/сек
Каналы                                   : 2 канала
Частота                                  : 44,1 КГц
Метод сжатия                             : С потерями
Размер потока                            : 11,4 Мбайт (100%)
Библиотека кодирования                   : LAME3.98
Настройки программы                      : -m j -V 4 -q 3 -lowpass 18.6 -b 192
Общее
Полное имя                               : C:\Users\Wycliffe Gordon - The Intimate Ellington. Ballads and Blues (2013)\back.jpg
Формат                                   : JPEG
Размер файла                             : 46,2 Кбайт
Изображения
Формат                                   : JPEG
Ширина                                   : 600 пикселей
Высота                                   : 508 пикселей
Цветовое пространство                    : YUV
Субдискретизация насыщенности            : 4:2:0
Битовая глубина                          : 8 бит
Метод сжатия                             : С потерями
Размер потока                            : 46,2 Кбайт (100%)
Общее
Полное имя                               : C:\Users\Wycliffe Gordon - The Intimate Ellington. Ballads and Blues (2013)\front.jpg
Формат                                   : JPEG
Размер файла                             : 29,5 Кбайт
Изображения
Формат                                   : JPEG
Ширина                                   : 600 пикселей
Высота                                   : 597 пикселей
Цветовое пространство                    : YUV
Субдискретизация насыщенности            : 4:2:0
Битовая глубина                          : 8 бит
Метод сжатия                             : С потерями
Размер потока                            : 29,5 Кбайт (100%)
Общее
Полное имя                               : C:\Users\Wycliffe Gordon - The Intimate Ellington. Ballads and Blues (2013)\Thumbs.db
Размер файла                             : 33,5 Кбайт
Время раздачи: до первых 10-ти сидов
Other forum [Profile] [PM]
Display posts from previous:    
Reply to topic

The time now is: Today 17:52

All times are GMT + 3 Hours



You cannot post new topics in this forum
You cannot reply to topics in this forum
You cannot edit your posts in this forum
You cannot delete your posts in this forum
You cannot vote in polls in this forum
You cannot attach files in this forum
You cannot download files in this forum