Сегодня идет свободное скачивание без начисления Download

Возвращение с Победой (Александр Иванов) (1947, Военный) DVDRip

Ответить на тему
 
Автор
Сообщение

UndegraundMen ®

Стаж: 5 лет 9 месяцев

Сообщений: 25860

Торрент-статистика

Пост 20-Мар-2013 07:51

[Цитировать]

Возвращение с Победой- Русское название: Возвращение с Победой
Год выпуска: 1947
Жанр: Военный
Описание фильма:
В годы Второй мировой войны из-за предательства лейтенант советской армии Август Гриезе попадает в плен. Фашисты пытаются склонить его на свою сторону. Август отказывается. Тогда фашисты по радио передают якобы обращение Августа к латышам прекратить сопротивление. Товарищи по оружию считают его предателем. Августу удается бежать из плена. Вскоре по всей Латвии разносятся вести о появившемся мстителе-одиночке, бесстрашном партизане по имени Крум.
Режиссер: Александр Иванов
Актеры: Жанис Копсталс, Янис Филипсон, Янис Осис, Луй Шмитс
Продолжительность: 01:32:21
Видеокодек: Xvid
Битрейт видео: ~1921 kbps
Размер кадра: 704x528
Качество видео: DVDRip
Аудиокодек: AC3 2.0
Битрейт аудио: 192 kbps

MI

Общее
Полное имя : C:\Users\1\Downloads\vozvrashchenie_s_pobedoy.avi
Формат : AVI
Формат/Информация : Audio Video Interleave
Размер файла : 1,37 Гбайт
Продолжительность : 1 ч. 32 м.
Общий поток : 2120 Кбит/сек
Программа кодирования : VirtualDubMod 1.5.4.1 (build 2178/release)
Библиотека кодирования : VirtualDubMod build 2178/release
Видео
Идентификатор : 0
Формат : MPEG-4 Visual
Профиль формата : Advanced [email protected]
Параметр BVOP формата : 1
Параметр QPel формата : Нет
Параметр GMC формата : Без точки перехода
Параметр матрицы формата : Выборочная
Идентификатор кодека : XVID
Идентификатор кодека/Подсказка : XviD
Продолжительность : 1 ч. 32 м.
Битрейт : 1921 Кбит/сек
Ширина : 704 пикселя
Высота : 528 пикселей
Соотношение сторон : 4:3
Частота кадров : 25,000 кадров/сек
Цветовое пространство : YUV
Субдискретизация насыщенности : 4:2:0
Битовая глубина : 8 бит
Тип развёртки : Прогрессивная
Метод сжатия : С потерями
Бит/(Пиксели*Кадры) : 0.207
Размер потока : 1,24 Гбайт (91%)
Библиотека кодирования : XviD 1.2.1 (UTC 2008-12-04)
Аудио
Идентификатор : 1
Формат : AC-3
Формат/Информация : Audio Coding 3
Расширение режима : CM (complete main)
Идентификатор кодека : 2000
Продолжительность : 1 ч. 32 м.
Вид битрейта : Постоянный
Битрейт : 192 Кбит/сек
Каналы : 2 канала
Расположение каналов : Front: L R
Частота : 48,0 КГц
Битовая глубина : 16 бит
Метод сжатия : С потерями
Размер потока : 127 Мбайт (9%)
Выравнивание : Разделение по промежуткам
Продолжительность промежутка : 96 мс. (2,40 видеокадра)
Время предзагрузки промежутка : 96 мс.
Язык : Russian
Скриншоты:        
Вне форума [Профиль] [ЛС]
Похожие темы
Форум Тема Автор Торрент Отв. Посл. сообщение
./templates/default/images/folder_dl.gif Фантастика, фэнтези, ужасы, мистика Толкин Джон Рональд Руэл - Властелин колец: Братство Кольца, Две крепости, Возвращение короля [Кирилл Гребенщиков, Сергей Кирсанов, 2007, 64 kbps, MP3] Omen
1 | 0

0 | 740

12

2017-01-05 01:00
Omen Последнее
./templates/default/images/folder_dl.gif Новинки (BD|HDTV|DVD) Человек-паук: Возвращение домой / Spider-Man: Homecoming (Джон Уоттс) [2017 г., Фантастика, боевик, приключения, WEB-DL 1080p] DUB | iTunes Theseus
1 | 0

0 | 5809

16

2017-09-28 12:53
Theseus Последнее
./templates/default/images/folder_dl.gif Новинки (HD|DVD|BD|WEB|TV|SAT|PDTV|-Rip) Кикбоксер возвращается / Kickboxer: Retaliation (Димитрий Логотетис) [2018 г., боевик, драма, BDRip] AVO | А.Гаврилов Theseus
1 | 0

0 | 494

15

2018-03-20 22:32
Theseus Последнее
Показать сообщения:    
Ответить на тему

Текущее время: Сегодня 20:00

Часовой пояс: GMT + 3



Вы не можете начинать темы
Вы не можете отвечать на сообщения
Вы не можете редактировать свои сообщения
Вы не можете удалять свои сообщения
Вы не можете голосовать в опросах
Вы не можете прикреплять файлы к сообщениям
Вы не можете скачивать файлы