Сегодня идет свободное скачивание без начисления Download

Весёлый калейдоскоп (1973) DVBRip

Ответить на тему
 
Автор
Сообщение

UndegraundMen ®

Стаж: 5 лет 7 месяцев

Сообщений: 25860

Торрент-статистика

Пост 20-Мар-2013 07:51

[Цитировать]

Весёлый калейдоскоп (1973) DVBRip- Русское название: Весёлый калейдоскоп
Год выпуска: 1973
Жанр: Комедия, Музыка, Короткометражный
Описание фильма:
Фильм состоит из трех юмористических новелл.
Новелла первая — «Сюрприз после смены». О том, как подружились две молодежные строительные бригады во время подготовки к музыкальному конкурсу.
Новелла вторая — «Мой друг Кнопик, который знает все». По мотивам рассказа В. Казько «Дождь на картошку». О том, как Ваня Кнопиков пытался помочь своему другу Вите объясниться в любви однокласснице.
Новелла третья — «Качкин едет в санаторий». Сатирическая новелла о приключениях молодого здорового часового мастера Петра Качкина, попавшего «по блату» в санаторий.
Режиссер: Валерий Поздняков, Геннадий Харлан, Александр Чекменев
Актеры: Владимир Герасимов, Светлана Суховей, Герман Качин, Сергей Проханов, Дима Солодухо, Костя Леневский, Ирина Нарбекова, Юрий Каморный, Владимир Ильин, Владимир Грицевский, Пётр Юрченков (старший), Владимир Сичкарь, Лидия Мордачёва, Ростислав Шмырёв, Александр Беспалый, З. Габелко, О. Клеонская, Татьяна Никифорова, Л. Заяц, Р. Рыжковская, Р. Чехова, Т. Куманская, В. Мордас, Е. Шестовец, А. Космачев, А. Ларионов (II), А. Ревуцкий, В. Шардыко, Н. Якшевич, Андрей Ставский, Августин Милованов, Юлия Полосина, Михаил Езепов, Любовь Румянцева, Е. Крылович, Борис Владомирский, Г. Ручимский, В. Ютчиц, Л. Чижевская, Н. Гейц, Александра Зимина, Кузьма Кулаков, И. Шмакова, Анатолий Обухов, Лидия Мельникова
Продолжительность: 01:21:25

Видеокодек: MPEG-2
Битрейт видео: ~3723 kb/s
Размер кадра: 720x576
Качество видео: DVBRip
Аудиокодек: MPEG Audio (stereo)
Битрейт аудио: 192 kb/s-

MediaInfo

Общее
Полное имя : Весёлый калейдоскоп.mpg
Формат : MPEG-PS
Размер файла : 2,10 Гбайт
Продолжительность : 1 ч. 21 м.
Режим общего битрейта : Переменный
Общий поток : 3701 Кбит/сек
Видео
Идентификатор : 224 (0xE0)
Формат : MPEG Video
Версия формата : Version 2
Профиль формата : [email protected]
Параметр BVOP формата : Да
Параметр матрицы формата : Выборочная
Параметр GOP формата : M=3, N=12
Продолжительность : 1 ч. 21 м.
Вид битрейта : Переменный
Битрейт : 3435 Кбит/сек
Максимальный битрейт : 5000 Кбит/сек
Ширина : 720 пикселей
Высота : 576 пикселей
Соотношение сторон : 4:3
Частота кадров : 25,000 кадров/сек
Стандарт вещания : PAL
Цветовое пространство : YUV
Субдискретизация насыщенности : 4:2:0
Битовая глубина : 8 бит
Тип развёртки : Чересстрочная
Порядок развёртки : Верхнее поле первое
Метод сжатия : С потерями
Бит/(Пиксели*Кадры) : 0.331
TimeCode_FirstFrame : 00:00:00:00
TimeCode_Source : Group of pictures header
Размер потока : 1,95 Гбайт (93%)
Аудио
Идентификатор : 192 (0xC0)
Формат : MPEG Audio
Версия формата : Version 1
Профиль формата : Layer 2
Продолжительность : 1 ч. 21 м.
Вид битрейта : Постоянный
Битрейт : 192 Кбит/сек
Каналы : 2 канала
Частота : 48,0 КГц
Метод сжатия : С потерями
Размер потока : 112 Мбайт (5%)
Скриншоты:        
       
 
Время раздачи: круглосуточно
Вне форума [Профиль] [ЛС]
Похожие темы
Форум Тема Автор Торрент Отв. Посл. сообщение
./templates/default/images/folder_dl.gif Ролики, сайт рипы Развеселая Полина... Пак из 82 клипов [ Lezcuties.com, 21Sextury.com, AnalTeenAngel.com, 1By-Day.com, Brutal-FaceSitting.com, AssholeFever.com, EvilAngel.com, и т.д.] XP1971
0 | 1

0 | 7336

3

2017-06-16 21:40
XP1971 Последнее
Показать сообщения:    
Ответить на тему

Текущее время: Сегодня 14:14

Часовой пояс: GMT + 3



Вы не можете начинать темы
Вы не можете отвечать на сообщения
Вы не можете редактировать свои сообщения
Вы не можете удалять свои сообщения
Вы не можете голосовать в опросах
Вы не можете прикреплять файлы к сообщениям
Вы не можете скачивать файлы