Today is a free download without charge Download

Время Синдбада [1 серии из 24] (2013) SATRip [Обновляемая]

Reply to topic
 
Author
Message

UndegraundMen ®

Longevity: 8 years 9 months

Posts: 25145

Торрент-статистика

Post 20-Mar-2013 07:51

[Quote]

Время Синдбада [1-2 серии из 24] (2013) SATRip [Обновляемая]- Русское название: Время Синдбада
Выпущено: Россия, Форвард-Фильм, Прогресс-Студия
Год выпуска: 2013
Жанр: Криминал, Детектив, Приключения
Перевод: Оригинал (Русский)
Субтитры: Отсутствуют

Режиссер: Ким Дружинин, Ольга Кандидатова
Актеры: Андрей Смелов, Валерий Гришко, Игорь Иванов, Яков Кучеревский, Александр Блок, Арсений Мыцык, Татьяна Шахматова, Маргарита Бычкова, Андрей Аверков, Марьяна Анохина, Петр Капица, Кирилл Капица, Петр Журавлёв, Михаил Елисеев, Владимир Щербаков, Константин Телегин, Анна Вартанян, Анна Арефьева, Алексей Федотов, Илья Савельев, Екатерина Соколова, Леонид Ворон, Евгений Баранов, Сергей Шкарбан, Руслан Лукьянов, Елена Купрашевич, Роман Притула, Андрей Аксёнов, Максим Митяшин, Екатерина Белова, Михаил Касапов, Александр Удальцов, Ирина Марцинкевич, Евгений Анисимов, Александр Иванов
Описание фильма:
Российским спецслужбам удается сорвать планы владельца крупного оружейного концерна Хвостова, который решил ради прибыли спровоцировать в Европе новый виток гонки вооружений. Хвостов играет по-крупному - организует убийство несговорчивого российского спецпредставителя при НАТО и взрыв в штаб-квартире организации в Брюсселе. Синдбаду, Щепкину и Неверову придётся заняться этим делом. Также их команде придётся участвовать в обезвреживании международной преступной группы. Однажды генералу ФСБ Раздрогину назначил встречу осведомитель из Амстердама, который что-то знал о тайном грузе, плывущим в Петербург. Однако до встречи шпион не дожил. Теперь единственными зацепками для спецслужб служит sms-сообщение от него в одно слово: «Эскалибур» и знак английского фунта.
Продолжительность: 2 х ~ 00:45:18 серия
Качество видео: SATRip
Видеокодек: Xvid
Битрейт видео: ~1263 Kbit/s
Размер кадра: 704 х 400
Аудиокодек: MP3, 2.0
Битрейт аудио: 128 Kbit/sВнимание! Раздача ведётся путём добавления новых серий

Внимание! Раздача ведётся путём добавления новых серий. Описание обновления торрента.

Внимание! Раздача ведётся путём добавления новых серий; при каждом добавлении создётся новый торрент. Чтобы начать докачку новой серии, пользователям необходимо сделать следующее:
(1) остановить скачивание,
(2) удалить старый торрент у себя из клиента (старые серии удалять не надо),
(3) скачать новый торрент и запустить его у себя в клиенте вместо старого, при этом указать клиенту путь в старую папку куда и должно происходить скачивание новых серий.
Ваш клиент при этом должен произвести хеширование (проверку) старой папки (если не производит сам - помогите ему сделать это), и будет докачивать только те серии которых у вас ещё нет. Старые серии при этом не удаляются, а продолжают раздаваться!
Eсли вы уже удалили старые серии, то предотвратить повторную закачку старых серий можно, отжав галочку в соответсвующих местах при запуске нового торрента. По возможности, желательно не удалять старые серии как можно дольше чтобы релизёр не столько продолжал раздавать старые серии, а смог сконцентрироваться на новых.

MediaInfo

Общее
Полное имя : D:\Торренты\Время Синдбада. 2013. SATRip\Время Синдбада.01.avi
Формат : AVI
Формат/Информация : Audio Video Interleave
Профиль формата : OpenDML
Настройки формата : rec
Размер файла : 454 Мбайт
Продолжительность : 45 м.
Общий поток : 1400 Кбит/сек
Программа кодирования : AVI-Mux GUI 1.17.8.3, Feb 16 201019:42:50
Видео
Идентификатор : 0
Формат : MPEG-4 Visual
Профиль формата : Advanced [email protected]
Параметр BVOP формата : 2
Параметр QPel формата : Нет
Параметр GMC формата : Без точки перехода
Параметр матрицы формата : Default (MPEG)
Идентификатор кодека : XVID
Идентификатор кодека/Подсказка : XviD
Продолжительность : 45 м.
Битрейт : 1263 Кбит/сек
Ширина : 704 пикс.
Высота : 400 пикс.
Соотношение сторон : 16:9
Частота кадров : 25,000 кадр/сек
Цветовое пространство : YUV
Подвыборка цветности : 4:2:0
Битовая глубина : 8 бит
Тип развёртки : Прогрессивная
Метод сжатия : С потерями
Бит/(Пиксели*Кадры) : 0.179
Размер потока : 409 Мбайт (90%)
Библиотека кодирования : XviD 64
Аудио
Идентификатор : 1
Формат : MPEG Audio
Версия формата : Version 1
Профиль формата : Layer 3
Режим : Joint stereo
Идентификатор кодека : 55
Идентификатор кодека/Подсказка : MP3
Продолжительность : 45 м.
Вид битрейта : Постоянный
Битрейт : 128 Кбит/сек
Каналы : 2 канала
Частота : 48,0 КГц
Метод сжатия : С потерями
Размер потока : 41,5 Мбайт (9%)
Выравнивание : Соединение по промежуткам
Продолжительность промежутка : 24 мс. (0,60 видеокадр)
Время предзагрузки промежутка : 192 ms
Скриншоты:
           
Время раздачи: 24/7 по возможности
Other forum [Profile] [PM]
Display posts from previous:    
Reply to topic

The time now is: Today 23:55

All times are GMT + 3 Hours



You cannot post new topics in this forum
You cannot reply to topics in this forum
You cannot edit your posts in this forum
You cannot delete your posts in this forum
You cannot vote in polls in this forum
You cannot attach files in this forum
You cannot download files in this forum