Today is a free download without charge Download

Топтуны [1-2 серии из 24] (2013) SATRip [Обновляемая]

Reply to topic
 
Author
Message

UndegraundMen ®

Longevity: 8 years 9 months

Posts: 25145

Торрент-статистика

Post 20-Mar-2013 05:54

[Quote]

Топтуны [1-4 серии из 24] (2013) SATRip [Обновляемая]- Русское название: Топтуны
Выпущено: Телекомпания "STAR Media" по заказу НТВ
Год выпуска: 2013
Жанр: Детектив, криминальный фильм
Перевод: Оригинал (Русский)
Субтитры: Отсутствуют
Сэмпл:
Дата российской премьеры: 18 марта 2013
Режиссер: Сергей Векслер, Сергей Артимович
Актеры: Денис Никифоров, Анна Носатова, Андрей Негривода, Дарья Шиханова, Ксения Иванова, Владимир Яковлев, Сослан Фидаров, Елена Мольченко (Фатюшина), Сергей Векслер, Евгений Леонов-Гладышев, Александра Афанасьева-Шевчук, Анна Банщикова, Егор Баринов, Луиза-Габриэла Бровина, Александр Рапопорт, Татьяна Косач-Брындина, Алексей Секирин, Бесо Гатаев, Евгений Ермаков, Алена Созинова, Сергей Терещенко, Николай Дроздовский, Сергей Комаров, Юрий Яковлев-Суханов, Мария Горбань, Руслан Ягудин, Александр Шпагин, Дарья Авратинская, Сергей Белов, Роман Синицын, Алексей Артемов, Денис Сердюков, Николай Алипа, Сергей Апрельский, Тарас Кияшко, Константин Новиков, Виктор Фалалеев, Константин Тополага, Василий Мичков, Джамболат Сланов, Максим Костромыкин, Надежда Белова
Описание фильма:
«Топтуны» - так называют Оперативно-поисковое управление, одну из самых засекреченных служб МВД. Майор милиции Сергей Ковалев, его помощник Макс Самедов, оперуполномоченные Аглая Максимова и Екатерина Чепикова каждый день имеют дело с особо опасными преступниками. Маскируясь под обычных людей и часто без оружия, они обязаны найти и обезвредить подозреваемых в уголовных преступлениях. Мгновенно перевоплощаясь в любой образ, которого требует ситуация, эта команда выполняет самые различные задачи - от поиска вооруженного дезертира, до ареста главбуха финансовой пирамиды, находящегося в бегах с круглой суммой уже не один год.

Описание серий:

1 серия "Установка": Оперативники вычисляют участников наркосделки. После этого Аглая и Екатерина отвлекают охрану дома, где происходит купля-продажа партии наркотиков, а Сергей Коваль проникает в дом. Молодой дезертир Юра готов сдаться полиции. Об этом же просит приютившая его девушка Вера. Сбежав, он прихватил автомат, потому что в тот момент был на посту...
2 серия "Установка": Оперативники вычисляют участников наркосделки. После этого Аглая и Екатерина отвлекают охрану дома, где происходит купля-продажа партии наркотиков, а Сергей Коваль проникает в дом. Молодой дезертир Юра готов сдаться полиции. Об этом же просит приютившая его девушка Вера. Сбежав, он прихватил автомат, потому что в тот момент был на посту...
3 серия "Артист": Из Екатеринбурга в Москву приезжает киллер Пачино с целью ликвидации крупного криминального авторитета по кличке Золотой. Заказ оплатил давний враг Золотого Джафар, однако и у Пачино есть свои мотивы для расправы - когда-то Золотой после крупного ограбления бросил Пачино прямо на дороге, уехав со всем награбленным и забыв, что Пачино спас ему жизнь...
4 серия "Артист": Из Екатеринбурга в Москву приезжает киллер Пачино с целью ликвидации крупного криминального авторитета по кличке Золотой. Заказ оплатил давний враг Золотого Джафар, однако и у Пачино есть свои мотивы для расправы - когда-то Золотой после крупного ограбления бросил Пачино прямо на дороге, уехав со всем награбленным и забыв, что Пачино спас ему жизнь...
Продолжительность: 4 х ~ 00:44:00 серия
Качество видео: SATRip
Видеокодек: Xvid
Битрейт видео: ~1650 Kbps
Размер кадра: 720x400
Аудиокодек: MP3, 2.0
Битрейт аудио: ~128.00 kbps
Релиз группа: Внимание! Раздача ведётся путём добавления новых серий

Внимание! Раздача ведётся путём добавления новых серий. Описание обновления торрента.

Внимание! Раздача ведётся путём добавления новых серий; при каждом добавлении создётся новый торрент. Чтобы начать докачку новой серии, пользователям необходимо сделать следующее:
(1) остановить скачивание,
(2) удалить старый торрент у себя из клиента (старые серии удалять не надо),
(3) скачать новый торрент и запустить его у себя в клиенте вместо старого, при этом указать клиенту путь в старую папку куда и должно происходить скачивание новых серий.
Ваш клиент при этом должен произвести хеширование (проверку) старой папки (если не производит сам - помогите ему сделать это), и будет докачивать только те серии которых у вас ещё нет. Старые серии при этом не удаляются, а продолжают раздаваться!
Eсли вы уже удалили старые серии, то предотвратить повторную закачку старых серий можно, отжав галочку в соответсвующих местах при запуске нового торрента. По возможности, желательно не удалять старые серии как можно дольше чтобы релизёр не столько продолжал раздавать старые серии, а смог сконцентрироваться на новых.

MediaInfo

Общее
Полное имя : F:\Фильмы\Топтуны\Топтуны\Топтуны. 01.avi
Формат : AVI
Формат/Информация : Audio Video Interleave
Размер файла : 541 Мбайт
Продолжительность : 42 м.
Общий поток : 1782 Кбит/сек
Библиотека кодирования : VirtualDub build 34807/release
Видео
Идентификатор : 0
Формат : MPEG-4 Visual
Профиль формата : Advanced [email protected]
Параметр BVOP формата : 2
Параметр QPel формата : Нет
Параметр GMC формата : Без точки перехода
Параметр матрицы формата : Default (H.263)
Режим смешивания : Сжатый битовый поток
Идентификатор кодека : XVID
Идентификатор кодека/Подсказка : XviD
Продолжительность : 42 м.
Битрейт : 1644 Кбит/сек
Ширина : 720 пикселей
Высота : 400 пикселей
Соотношение сторон : 16:9
Частота кадров : 25,000 кадров/сек
Цветовое пространство : YUV
Субдискретизация насыщенности : 4:2:0
Битовая глубина : 8 бит
Тип развёртки : Прогрессивная
Метод сжатия : С потерями
Бит/(Пиксели*Кадры) : 0.228
Размер потока : 500 Мбайт (92%)
Библиотека кодирования : XviD 64
Аудио
Идентификатор : 1
Формат : MPEG Audio
Версия формата : Version 1
Профиль формата : Layer 3
Режим : Joint stereo
Расширение режима : MS Stereo
Идентификатор кодека : 55
Идентификатор кодека/Подсказка : MP3
Продолжительность : 42 м.
Вид битрейта : Постоянный
Битрейт : 128 Кбит/сек
Каналы : 2 канала
Частота : 48,0 КГц
Метод сжатия : С потерями
Размер потока : 38,9 Мбайт (7%)
Выравнивание : Разделение по промежуткам
Продолжительность промежутка : 40 мс. (1,00 видеокадр)
Время предзагрузки промежутка : 500 мс.
Скриншоты:
       
Время раздачи: 24/7 (до 10 скачавших)
Other forum [Profile] [PM]
Display posts from previous:    
Reply to topic

The time now is: Today 05:53

All times are GMT + 3 Hours



You cannot post new topics in this forum
You cannot reply to topics in this forum
You cannot edit your posts in this forum
You cannot delete your posts in this forum
You cannot vote in polls in this forum
You cannot attach files in this forum
You cannot download files in this forum