Today is a free download without charge Download

Марафон / De Marathon (Дидрик Копал) (2012, Драма, Комедия, Спорт) BDRip [720p]

Reply to topic
 
Author
Message

Prince ®

Gender:

Longevity: 8 years

Posts: 18

Торрент-статистика

Post 19-Mar-2013 18:46

[Quote]

Марафон / De Marathon (2012) BDRip- Русское название: Марафон
Оригинальное название: De Marathon
Год выпуска: 2012
Производство: Нидерланды / Eyeworks Film & TV Drama, Inspire Pictures
Жанр: Драма, Комедия, Спорт
Перевод: Одноголосый закадровый, любительский
Озвучка / Автор перевода: [Андрей Бочаров]
Субтитры: Вшитые отключаемые
Язык субтитров: Английский, Немецкий (VOBSUB)
Дата мировой премьеры: 18 октября 2012
Режиссер: Дидрик Копал
Актеры: Стефан Валле, Марсель Хенсема, Фрэнк Ламмерс, Мимун Оайясса, Синтия Абма, Драган Бакема, Джон Буйсман
Описание фильма:
Автомастерская, в которой работают четверо любящих пивко, карты и сигареты друзей, под угрозой банкротства. Их осеняет "блесящая" идея найти спонсора и пробежать Роттердамский марафон. Вот только лет им уже всем под пятьдесят. Они полны решимости финишировать и уговаривают быть их тренером хромого эмминранта-египтянина. Для главного героя на кону стоит не только гараж, но и собственная жизнь.

Продолжительность: 01:51:51
Качество видео: BDRip
Видеокодек: MPEG-4 AVC/H.264
Битрейт видео: ~4885 Кбит/сек
Размер кадра: 1280x536
Аудио #1: Русский (Dolby AC3, 2 ch) 192 Кбит/сек
Аудио #2: Немецкий (DTS, 6 ch) 1510 Кбит/сек

MediaInfo:

Код:
Общее
Уникальный идентификатор         : 170747268394941050251338607694779289885 (0x8074BA4B5C5B8F7BBE4C07F0FCD4911D)
Полное имя                       : H:\Marafon.2012.L1.BDRip 720p-MysTeRy.mkv
Формат                           : Matroska
Версия формата                   : Version 4 / Version 2
Размер файла                     : 5,13 Гбайт
Продолжительность                : 1 ч. 51 м.
Общий поток                      : 6567 Кбит/сек
Название фильма                  : Marafon.2012.L1.BDRip 720p
Дата кодирования                 : UTC 2013-03-19 15:11:30
Программа кодирования            : mkvmerge v6.1.0 ('Old Devil') built on Mar  2 2013 14:32:37
Библиотека кодирования           : libebml v1.3.0 + libmatroska v1.4.0
Видео
Идентификатор                    : 1
Формат                           : AVC
Формат/Информация                : Advanced Video Codec
Профиль формата                  : [url=mailto:[email protected]][email protected][/url]
Параметр CABAC формата           : Да
Параметр ReFrames формата        : 12 кадров
Идентификатор кодека             : V_MPEG4/ISO/AVC
Продолжительность                : 1 ч. 51 м.
Битрейт                          : 4885 Кбит/сек
Ширина                           : 1280 пикселей
Высота                           : 536 пикселей
Соотношение сторон               : 2,40:1
Частота кадров                   : 23,976 кадра/сек
Цветовое пространство            : YUV
Субдискретизация насыщенности    : 4:2:0
Битовая глубина                  : 8 бит
Тип развёртки                    : Прогрессивная
Бит/(Пиксели*Кадры)              : 0.297
Размер потока                    : 3,70 Гбайт (72%)
Библиотека кодирования           : x264 core 130 r2273 b3065e6
Настройки программы              : cabac=1 / ref=12 / deblock=1:-3:-3 / analyse=0x3:0x133 / me=umh / subme=10 / psy=1 / psy_rd=1.20:0.08 / mixed_ref=1 / me_range=32 / chroma_me=1 / trellis=2 / 8x8dct=1 / cqm=0 / deadzone=21,11 / fast_pskip=1 / chroma_qp_offset=-3 / threads=18 / lookahead_threads=4 / sliced_threads=0 / nr=0 / decimate=1 / interlaced=0 / bluray_compat=0 / constrained_intra=0 / bframes=10 / b_pyramid=2 / b_adapt=2 / b_bias=0 / direct=3 / weightb=1 / open_gop=0 / weightp=2 / keyint=240 / keyint_min=23 / scenecut=40 / intra_refresh=0 / rc_lookahead=120 / rc=abr / mbtree=1 / bitrate=4885 / ratetol=1.0 / qcomp=0.60 / qpmin=0 / qpmax=69 / qpstep=4 / ip_ratio=1.40 / aq=2:0.70
Язык                             : English
Default                          : Да
Forced                           : Нет
Аудио #1
Идентификатор                    : 2
Формат                           : AC-3
Формат/Информация                : Audio Coding 3
Расширение режима                : CM (complete main)
Идентификатор кодека             : A_AC3
Продолжительность                : 1 ч. 51 м.
Вид битрейта                     : Постоянный
Битрейт                          : 192 Кбит/сек
Каналы                           : 2 канала
Расположение каналов             : Front: L R
Частота                          : 48,0 КГц
Битовая глубина                  : 16 бит
Метод сжатия                     : С потерями
Размер потока                    : 154 Мбайт (3%)
Заголовок                        : [Андрей Бочаров]
Язык                             : Russian
Default                          : Да
Forced                           : Нет
Аудио #2
Идентификатор                    : 3
Формат                           : DTS
Формат/Информация                : Digital Theater Systems
Идентификатор кодека             : A_DTS
Продолжительность                : 1 ч. 51 м.
Вид битрейта                     : Постоянный
Битрейт                          : 1510 Кбит/сек
Каналы                           : 6 каналов
Расположение каналов             : Front: L C R, Side: L R, LFE
Частота                          : 48,0 КГц
Битовая глубина                  : 24 бит
Метод сжатия                     : С потерями
Размер потока                    : 1,18 Гбайт (23%)
Язык                             : Dutch
Default                          : Нет
Forced                           : Нет
Текст #1
Идентификатор                    : 4
Формат                           : VobSub
Режим смешивания                 : zlib
Идентификатор кодека             : S_VOBSUB
Идентификатор кодека/Информация  : The same subtitle format used on DVDs
Язык                             : English
Default                          : Нет
Forced                           : Нет
Текст #2
Идентификатор                    : 5
Формат                           : VobSub
Режим смешивания                 : zlib
Идентификатор кодека             : S_VOBSUB
Идентификатор кодека/Информация  : The same subtitle format used on DVDs
Язык                             : Dutch
Default                          : Нет
Forced                           : Нет
Меню
00:00:00.000                     : en:00:00:00.000
00:12:56.609                     : en:00:12:56.609
00:27:38.323                     : en:00:27:38.323
00:39:46.759                     : en:00:39:46.759
00:51:53.444                     : en:00:51:53.444
01:06:20.059                     : en:01:06:20.059
01:22:27.151                     : en:01:22:27.151
01:37:10.700                     : en:01:37:10.700
01:48:53.527                     : en:01:48:53.527
Скриншоты:
       
       
Other forum [Profile] [PM]

Dracula

Longevity: 7 years 5 months

Posts: 11216

Торрент-статистика

Post 02-Jan-2014 15:52 (after 9 months 13 days)

Топик был перенесен из форума Новинки (DVD, HD Video) в форум Зарубежное кино (HD Video)


kogesan
 
Display posts from previous:    
Reply to topic

The time now is: Today 03:43

All times are GMT + 3 Hours



You cannot post new topics in this forum
You cannot reply to topics in this forum
You cannot edit your posts in this forum
You cannot delete your posts in this forum
You cannot vote in polls in this forum
You cannot attach files in this forum
You cannot download files in this forum