Today is a free download without charge Download

Журов 2 / Серии: 01-02 из 16 (Карен Оганесян) [2010, Детектив, HDTV, 1080i]

Reply to topic
 
Author
Message

Omen ®

Longevity: 9 years 1 month

Posts: 181086

Торрент-статистика

Post 19-Mar-2013 10:13

[Quote]

Журов 2
Год выпуска: 2010
Производство: Централ Партнершип
Жанр: Детектив
Продолжительность: ~ 00:45:00
Субтитры: Отсутствуют
Режиссёр: Карен Оганесян
В ролях: Андрей Панин, Елена Сафонова, Олеся Судзиловская, Андрей Карако, Борис Полунин, Юлия Рутберг, Игорь Ливанов, Валерий Зеленский, Игорь Злотников, Виталий Кравченко и другие.
Описание: Продолжение классического детектива в духе Коломбо. Главный герой фильма – немолодой, честный, преданный своему делу работник прокуратуры. Как и в первой части, в очередных сериях он расследует восемь дел (каждые две серии имеют один законченный сюжет), встречаясь с самыми разными людьми, как по характерам, так и по социальному положению. И в каждом деле его опыт, смекалка и превосходное знание психологии позволяют докопаться до самой сути.
Сэмпл: http://multi-up.com/844436
ВНИМАНИЕ: Сериал не в полноценном HD. Это Апскейл (Upscalе)! На мой взгляд качество лучше DVD, поэтому релиз и представлен Вашему вниманию.
Доп. информация: Релиз -

Рип чистый. Без посторонних надписей. Выкладывается как есть.
Качество: HDTV 1080i
Контейнер: TS
Видео кодек: AVC
Аудио кодек: AC3
Видео: 1920x1080 (16:9) 25.000 fps 7 838 Kbps, 0.151 bit/pixel
Аудио 1: MPEG Audio 48000Hz stereo 192 Кбит/сек
Аудио 2: AC3 384 Kbps, 2 channels

Скриншоты


MI

GeneralID : 1 (0x1)Complete name : M:\ВЫКЛАДКА\HDTV\Сериалы\Журов - 2 (2010, Детектив, HDTV) (MYDIMKA)\01 серия.tsFormat : MPEG-TSFile size : 3.01 GiBDuration : 48mn 38sOverall bit rate mode : VariableOverall bit rate : 8 863 Kbps
VideoID : 2931 (0xB73)Menu ID : 1 (0x1)Format : AVCFormat/Info : Advanced Video CodecFormat profile : [email protected] settings, CABAC : YesFormat settings, ReFrames : 3 framesCodec ID : 27Duration : 48mn 38sBit rate : 7 843 KbpsWidth : 1 920 pixelsHeight : 1 080 pixelsDisplay aspect ratio : 16:9Frame rate : 25.000 fpsColor space : YUVChroma subsampling : 4:2:0Bit depth : 8 bitsScan type : MBAFFBits/(Pixel*Frame) : 0.151Stream size : 2.66 GiB (88%)
Audio #1ID : 2932 (0xB74)Menu ID : 1 (0x1)Format : MPEG AudioFormat version : Version 1Format profile : Layer 2Mode : Joint stereoMode extension : Intensity Stereo + MS StereoCodec ID : 3Duration : 48mn 38sBit rate mode : ConstantBit rate : 192 KbpsChannel(s) : 2 channelsSampling rate : 48.0 KHzCompression mode : LossyStream size : 66.8 MiB (2%)Language : Russian
Audio #2ID : 2933 (0xB75)Menu ID : 1 (0x1)Format : AC-3Format/Info : Audio Coding 3Mode extension : CM (complete main)Format settings, Endianness : BigCodec ID : 129Duration : 48mn 38sBit rate mode : ConstantBit rate : 384 KbpsChannel(s) : 2 channelsChannel positions : Front: L RSampling rate : 48.0 KHzBit depth : 16 bitsCompression mode : LossyStream size : 134 MiB (4%)Language : Russian

Внимание! Раздача ведётся путём добавления новых выпусков

Внимание! Раздача ведётся путём добавления новых выпусков; при каждом добавлении создётся новый торрент. Чтобы начать докачку нового выпуска, пользователям необходимо сделать следующее:
(1) остановить скачивание,
(2) удалить старый торрент у себя из клиента (старые выпуски удалять не надо),
(3) скачать новый торрент и запустить его у себя в клиенте вместо старого, при этом указать клиенту путь в старую папку куда и должно происходить скачивание новых выпусков.
Ваш клиент при этом должен произвести хеширование (проверку) старой папки (если не производит сам - помогите ему сделать это), и будет докачивать только те выпуски которых у вас ещё нет. Старые выпуски при этом не удаляются, а продолжают раздаваться!
Eсли вы уже удалили старые выпуски, то предотвратить повторную закачку старых выпусков можно, отжав галочку в соответсвующих местах при запуске нового торрента. По возможности, желательно не удалять старые выпуски как можно дольше чтобы релизёр не столько продолжал раздавать старые выпуски, а смог сконцентрироваться на новых.
Other forum [Profile] [PM]

naryshev

Gender:

Longevity: 9 years

Posts: 114

Торрент-статистика

Post 19-Mar-2013 11:31 (after 1 hour 18 minutes)

[Quote]

Хороший мужик был Панин. Нелепость... Как говорится-бог забирает к себе лучших...
Other forum [Profile] [PM]

Omen ®

Longevity: 9 years 1 month

Posts: 181086

Торрент-статистика

Post 19-Mar-2013 12:30 (after 58 minutes)

[Quote]

Что верно то верно... А ведь сколько еще им не сыграно...
Other forum [Profile] [PM]
Display posts from previous:    
Reply to topic

The time now is: Today 04:29

All times are GMT + 3 Hours



You cannot post new topics in this forum
You cannot reply to topics in this forum
You cannot edit your posts in this forum
You cannot delete your posts in this forum
You cannot vote in polls in this forum
You cannot attach files in this forum
You cannot download files in this forum